Мовчання шинки / The Silence of the Hams (1994) Eng | sub Ukr

Нові коментарі

Нова тема   Відповісти
Останній раз роздавалося Daron9 (2021-04-20)
Автор Повідомлення
besconst 
Свій


З нами з: 10.03.12
Востаннє: 19.04.21
Повідомлень: 72

2020-11-28 15:04  
Мовчання шинки / The Silence of the Hams (1994) Eng | sub Ukr

Мовчання шинки / The Silence of the Hams (1994) Eng | sub Ukr


Жанр: комедія, пародія
Країна: США, Італія



Кінокомпанія: Silvio Berlusconi Productions, 30th Century Wolf
Режисер: Еціо Ґреджо
Актори: Біллі Зейн, Еціо Ґреджо, Дом ДеЛуїз, Мартін Болсем, Йоанна Пакула, Шарлін Тілтон

Сюжет:
Молодому агенту ФБР Джо Ді Фостару доручено працювати над справою вбивці-психопата, жертвами якого стали понад 120 людей. Щоб більше дізнатися про вбивцю, Джо повинен зустрітися з доктором Анімалом Канібалом Піцою, знаменитим людожером, який їв піцу з шматочками людського м'яса. Тим часом подруга Джо, Джейн Вайн, викрала у свого боса 400 000 доларів. Тепер вона і Джо могли бути щасливі, але Джейн потрапила в жахливу бурю (викликану роботою команди зі спецефектів) і зупинилася біля кладовища «Мотель», господар якого знаходиться в повному підпорядкуванні у своєї шаленої матері.


Тривалість: 01:18:26
Якість:
Відео:
кодек:
розмір кадру: 688 х 560
бітрейт: 1866 кб/с

Аудіо:
мова: англійська
переклад: оригінал
кодек: 2.0
бітрейт: 192 кб/с

Субтитри:
мова: українська
переклад: авторський, besconst
тип: програмні (м'які)
формат: *.srt
Медіаінфо
General
Complete name : D:\Movies\The Silence of the Hams (1994) \The Silence of the Hams (1994) .srt
Format : SubRip
File size : 78.8 KiB

Text
Format : SubRip
Compression mode : Lossless

General
Complete name : D:\Movies\The Silence of the Hams (1994) \The Silence of the Hams (1994) .avi
Format : AVI
Format/Info : Audio Video Interleave
File size : 1.13 GiB
Duration : 1 h 18 min
Overall bit rate : 2 069 kb/s

Video
ID : 0
Format : MPEG-4 Visual
Format profile : Advanced [email protected]
Format settings, BVOP : 2
Format settings, QPel : No
Format settings, GMC : No warppoints
Format settings, Matrix : Default (H.263)
Codec ID :
Codec ID/Hint :
Duration : 1 h 18 min
Bit rate : 1 866 kb/s
Width : 688 pixels
Height : 560 pixels
Display aspect ratio : 1.229
Frame rate : 25.000 FPS
Color space : YUV
Chroma subsampling : 4:2:0
Bit depth : 8 bits
Scan type : Progressive
Compression mode : Lossy
Bits/(Pixel*Frame) : 0.194
Stream size : 1.02 GiB (90%)
Writing library : 1.2.1 (UTC 2008-12-04)

Audio
ID : 1
Format : AC-3
Format/Info : Audio Coding 3
Mode extension : CM (complete main)
Format settings, Endianness : Big
Codec ID : 2000
Duration : 1 h 17 min
Bit rate mode : Constant
Bit rate : 192 kb/s
Channel(s) : 2 channels
Channel positions : Front: L R
Sampling rate : 48.0 kHz
Frame rate : 31.250 FPS (1536 spf)
Bit depth : 16 bits
Compression mode : Lossy
Stream size : 107 MiB (9%)
Alignment : Aligned on interleaves
Interleave, duration : 32 ms (0.81 video frame)
Скріншоти







Джерело:
Особиста оцінка: 8 - мені сподобалося


Золотий реліз (завантажене не впливає на рейтинг)
 Трекер:    Зареєстрований   

Завантажити / скачати фільм українською



відео для новачків



 Зареєстрований:   2020-11-28 15:04
 Розмір:   1.13 GB 
 Оцінка фільму:   -/10 (Голосів: 0)
   
Ваш часовий пояс: GMT + 2 Години

Нова тема   Відповісти