Ліга Європи УЄФА 2020-21 / UEFA Europa League / Група G / 4-й тур / АЕК Афіни (Греція) - Зоря Луганськ (Україна) / Футбол 1 HD (26.11.2020) 720p UKR

Нові коментарі

Нова тема   Відповісти
Останній раз роздавалося dei2 (2021-02-27)
Автор Повідомлення
Anonymous 







2020-11-27 03:15  
Ліга Європи УЄФА 2020-21 / UEFA Europa League / Група G / 4-й тур / АЕК Афіни (Греція) - Зоря Луганськ (Україна) / Футбол 1 HD (26.11.2020) 720p UKR

Ліга Європи УЄФА 2020-21 / UEFA Europa League / Група G / 4-й тур / АЕК Афіни (Греція) - Зоря Луганськ (Україна) / Футбол 1 HD (26.11.2020) 720p UKR


Телеканал: Футбол 1 HD
Опис:
Ліга Європи УЄФА 2020-21 / UEFA Europa League / Група G / 4-й тур / АЕК Афіни (Греція) - Зоря Луганськ (Україна) / Футбол 1 HD (26.11.2020)
Тривалість:
01:45:34
Якість: 720p
Відео:
кодек:
розмір кадру: 1280x720
бітрейт: 3500 кб/с

Аудіо:
мова: українська
переклад: одноголосий закадровий | Андрій Столярчук |
кодек: 2.0
бітрейт: 128 кб/с
Склади:




Скріншоти






Info
Код:

General
Complete name                            : AEK_Athens_vs_Zorya (26.11.2020) 720p UKR.
Format                                   :
Format version                           : Version 4
File size                                : 2.75 GiB
Duration                                 : 1 h 45 min
Overall bit rate                         : 3 729 kb/s
Writing application                      : VideoReDo (Lavf56.25.101)
Writing library                          : VideoReDo (Lavf56.25.101)

Video
ID                                       : 1
Format                                   : AVC
Format/Info                              : Advanced Video Codec
Format profile                           : [email protected]
Format settings                          : CABAC / 4 Ref Frames
Format settings, CABAC                   : Yes
Format settings, RefFrames               : 4 frames
Codec ID                                 : V_MPEG4/ISO/AVC
Duration                                 : 1 h 45 min
Bit rate                                 : 3 527 kb/s
Width                                    : 1 280 pixels
Height                                   : 720 pixels
Display aspect ratio                     : 16:9
Frame rate mode                          : Constant
Frame rate                               : 50.000 FPS
Color space                              : YUV
Chroma subsampling                       : 4:2:0
Bit depth                                : 8 bits
Scan type                                : Progressive
Bits/(Pixel*Frame)                       : 0.077
Stream size                              : 2.60 GiB (95%)
Default                                  : No
Forced                                   : No

Audio
ID                                       : 2
Format                                   : AC-3
Format/Info                              : Audio Coding 3
Commercial name                          : Dolby Digital
Codec ID                                 : A_AC3
Duration                                 : 1 h 45 min
Bit rate mode                            : Constant
Bit rate                                 : 128 kb/s
Channel(s)                               : 2 channels
Channel layout                           : L R
Sampling rate                            : 48.0 kHz
Frame rate                               : 31.250 FPS (1536 SPF)
Bit depth                                : 16 bits
Compression mode                         : Lossy
Stream size                              : 96.7 MiB (3%)
Language                                 : Ukrainian
Service kind                             : Complete Main
Default                                  : Yes
Forced                                   : No
Подяка за допомогу у створенні релізу : rgfootball
Особиста оцінка: 9 - давно не бачив настільки якісного футболу і фарту


Бронзовий реліз (на рейтинг впливає 75% завантаженого)
 Трекер:    Зареєстрований   

Завантажити / скачати торрент



відео для новачків



 Зареєстрований:   2020-11-27 03:15
 Розмір:   2.75 GB 
 Оцінка:   9.5/10 (Голосів: 2)
   
staf777 
Відео Гуртом - підтримка та поширення
Відео Гуртом - підтримка та поширення


З нами з: 16.11.16
Востаннє: 08.03.21
Повідомлень: 5126

2020-11-27 09:23  
Ось так б і нашим учасникам-мученикам у ЛЧ грати Happy
tilda4334 
Відео Гуртом - фільмокрай
Відео Гуртом - фільмокрай


З нами з: 15.08.14
Востаннє: 08.03.21
Повідомлень: 1437

2020-11-27 13:40  
staf777
Хоча б одна позитивна гра)

Ваш часовий пояс: GMT + 2 Години

Нова тема   Відповісти