Вогнетривкий / Fireproof (2008) 720 Ukr/Eng | Sub Eng

Нові коментарі

Нова тема   Відповісти
Автор Повідомлення
dragheart 
Свій


З нами з: 27.01.16
Востаннє: 22.01.21
Повідомлень: 128

2020-11-26 18:04  
Вогнетривкий / Fireproof (2008) 720 Ukr/Eng | Sub Eng

Вогнетривкий / Fireproof (2008) 720 Ukr/Eng | Sub Eng


Жанр: драма, романтичний
Країна: США



Кінокомпанія: Samuel Goldwyn Films, Affirm Films, Carmel Entertainment
Режисер: Алекс Кендрік
Актори: Кірк Камерон, Ерін Беті, Кен Бевелі, Блейк Бейлі, Ентоні Браун, Уолтер Барнетт, Бейлі Кейв, Джанет Деппер, Еллісон Даусон, Стефан Дерван та інші.

Сюжет:
Заходячи в палаючий будинок, капітан Калеб Холт діє по-старому правилу пожежників: «Ніколи не залишай товариша в біді». Приходячи додому, де його чекає дружина, почуття до якої давно згасло, він живе за своїми власними правилами. На роботі Калеб завжди рятує інших, але як йому врятувати свій шлюб?


Тривалість: 01:58:19
Якість:
Відео:
кодек:
розмір кадру: 1280 х 688
бітрейт: 4643 кб/с

Аудіо # 1:
мова: українська
переклад: багатоголосий закадровий | DubLiCat
кодек: 5.1
бітрейт: 384 кб/с
ролі озвучують:(Olegolas, Оля Ілєнко, Тетяна Рябова, Олександра Red, Євгеній Тітомир)

Аудіо # 2:
мова: англійська
переклад: оригінал
кодек: 5.1
бітрейт: 640 кб/с

Субтитри:
мова: англійська
тип: програмні (м'які)
формат: *.srt

Приєднуйтесь до нас у FaceBook та Telegram: DubLcat
Info
General
Unique ID : 189315456880254844110897496056158761104 (0x8E6CD4AAFD7D7FE600DB57F791203090)
Complete name : F:\Fireproof(DubLiCat).2008..Ukr.Eng.
Format :
Format version : Version 4 / Version 2
File size : 4.69 GiB
Duration : 1h 58mn
Overall bit rate : 5 669 Kbps
Encoded date : UTC 2020-11-17 15:57:47
Writing application : v23.0.0 ('The Bride Said No') 64-bit
Writing library : libebml v1.3.6 + v1.4.9
DURATION : 01:58:19.904000000
NUMBER_OF_FRAMES : 221872
NUMBER_OF_BYTES : 340795392
_STATISTICS_WRITING_APP : v23.0.0 ('The Bride Said No') 64-bit
_STATISTICS_WRITING_DATE_UTC : 2020-11-17 15:57:47
_STATISTICS_TAGS : BPS DURATION NUMBER_OF_FRAMES NUMBER_OF_BYTES

Video
ID : 1
Format : AVC
Format/Info : Advanced Video Codec
Format profile : [email protected]
Format settings, CABAC : Yes
Format settings, ReFrames : 5 frames
Codec ID : V_MPEG4/ISO/AVC
Duration : 1h 58mn
Bit rate : 4 643 Kbps
Width : 1 280 pixels
Height : 688 pixels
Display aspect ratio : 1.860
Frame rate : 23.976 fps
Color space : YUV
Chroma subsampling : 4:2:0
Bit depth : 8 bits
Scan type : Progressive
Bits/(Pixel*Frame) : 0.220
Stream size : 3.75 GiB (80%)
Writing library : core 76 r1271 496d79d
Encoding settings : cabac=1 / ref=5 / deblock=1:0:0 / analyse=0x3:0x133 / me=umh / subme=7 / psy=1 / psy_rd=1.0:0.0 / mixed_ref=1 / me_range=16 / chroma_me=1 / trellis=1 / 8x8dct=1 / cqm=0 / deadzone=21,11 / chroma_qp_offset=-2 / threads=6 / nr=0 / decimate=1 / mbaff=0 / bframes=3 / b_pyramid=0 / b_adapt=2 / b_bias=0 / direct=1 / wpredb=1 / keyint=250 / keyint_min=25 / scenecut=40 / rc_lookahead=40 / rc=2pass / mbtree=1 / bitrate=4643 / ratetol=1.0 / qcomp=0.60 / qpmin=10 / qpmax=51 / qpstep=4 / cplxblur=20.0 / qblur=0.5 / ip_ratio=1.40 / aq=1:1.00
Language : English
Default : Yes
Forced : No

Audio #1
ID : 2
Format : AC-3
Format/Info : Audio Coding 3
Mode extension : CM (complete main)
Codec ID : A_AC3
Duration : 1h 58mn
Bit rate mode : Constant
Bit rate : 384 Kbps
Channel(s) : 6 channels
Channel positions : Front: L C R, Side: L R, LFE
Sampling rate : 48.0 KHz
Bit depth : 16 bits
Compression mode : Lossy
Stream size : 325 MiB (7%)
Language : Ukrainian
Default : Yes
Forced : No

Audio #2
ID : 3
Format : AC-3
Format/Info : Audio Coding 3
Mode extension : CM (complete main)
Codec ID : A_AC3
Duration : 1h 58mn
Bit rate mode : Constant
Bit rate : 640 Kbps
Channel(s) : 6 channels
Channel positions : Front: L C R, Side: L R, LFE
Sampling rate : 48.0 KHz
Bit depth : 16 bits
Compression mode : Lossy
Stream size : 542 MiB (11%)
Language : English
Default : No
Forced : No

Text
ID : 4
Format : UTF-8
Codec ID : S_TEXT/UTF8
Codec ID/Info : UTF-8 Plain Text
Language : English
Default : Yes
Forced : No
Скріншоти



Джерело:


Авторський реліз (завантажувати можна без реєстрації)
 Трекер:    Зареєстрований   

Завантажити / скачати фільм українською



відео для новачків



 Зареєстрований:   2020-11-26 18:04
 Розмір:   4.69 GB 
 Оцінка фільму:   10/10 (Голосів: 4)
   
Інші релізи
   Вогнетривкий / Fireproof (2008) AVC Ukr/Eng | sub Ukr/Eng Arsenfpu  6 / 0   2.3 GB   2020-10-28 20:36 
   Вогнетривкий / Fireproof (2008) 1080p Eng | Sub Ukr/Eng Alukret  0 / 0   9.03 GB   2020-09-07 14:12 
   Вогнетривкий / Fireproof (2008) Eng | Sub Ukr FAELIT  3 / 0   1.45 GB   2019-02-22 17:28 
   Вогнетривкий / Fireproof (2008) Remux 1080p Eng | sub Ukr/Eng famous37  1 / 0   19.12 GB   2016-02-07 17:30 
MutuLI 
Відео Гуртом - фільмокрай
Відео Гуртом - фільмокрай


З нами з: 08.03.09
Востаннє: 22.01.21
Повідомлень: 2057

2020-12-01 18:21  
Ваш часовий пояс: GMT + 2 Години

Нова тема   Відповісти