Кімната Гретхен - Теорія неймовірності (2020) [] | Indie Rock

Нові коментарі

Нова тема   Відповісти
Автор Повідомлення
kolpavel 
VIP


З нами з: 04.05.14
Востаннє: 19.01.21
Повідомлень: 1366

2020-11-25 21:52  
Кімната Гретхен - Теорія неймовірності (2020) [] | Indie Rock

Кімната Гретхен - Теорія неймовірності (2020) [] | Indie Rock


Стиль: Indie Rock
Країна, місто: Україна, Дніпро.
Видавець: гурт
Виконавці:
Антон «Маузерр» Кістрін ― вокал, гітара
Олександр Михайлець ― бас, вокал
Віталій Зєбзєєв ― барабани
Пісні:
    01 - Берлін - 03:43
    02 - Блек фрайдей - 03:42
    03 - 27 - 04:45
    04 - Поліція - 04:55
    05 - Драма квін - 03:27
    06 - Щастя - 03:38
    07 - Над морем - 03:31
    08 - Впритул - 03:15
    09 - Джармуш - 05:10
    10 - Імбир - 02:59

Тривалість: 00:39:08
Мова: українська
Аудіо-кодек:
Бітрейт: 720 - 932 кб/с
Джерело: трекер
Додаткова інформація:
Лог DRM
foobar2000 1.4.2 / Dynamic Range Meter 1.1.1
log date: 2020-11-21 11:18:10

--------------------------------------------------------------------------------
Analyzed: Кімната Гретхен / Теорія неймовірності
--------------------------------------------------------------------------------

DR Peak RMS Duration Track
--------------------------------------------------------------------------------
DR7 -0.20 dB -8.33 dB 3:43 01-Берлін
DR7 -0.20 dB -7.78 dB 3:43 02-Блек фрайдей
DR7 -0.20 dB -8.00 dB 4:45 03-27
DR7 -0.20 dB -8.25 dB 4:56 04-Поліція
DR7 -0.20 dB -9.58 dB 3:27 05-Драма квін
DR7 -0.20 dB -8.13 dB 3:38 06-Щастя
DR7 -0.20 dB -8.78 dB 3:32 07-Над морем
DR6 -0.20 dB -6.52 dB 3:15 08-Впритул
DR7 -0.20 dB -8.08 dB 5:10 09-Джармуш
DR9 -0.20 dB -11.40 dB 3:00 10-Імбир
--------------------------------------------------------------------------------

Number of tracks: 10
Official DR value: DR7

Samplerate: 44100 Hz
Channels: 2
Bits per sample: 16
Bitrate: 730 kbps
Codec:
================================================================================
Лог Якостi
-----------------------

DON'T MODIFY THIS FILE

-----------------------

PERFORMER: auCDtect Task Manager, ver. 1.6.0 RC1 build 1.6.0.1
Copyright (c) 2008-2010 y-soft. All rights reserved
http://y-soft.org

ANALYZER: auCDtect: CD records authenticity detector, version 0.8.2
Copyright (c) 2004 Oleg Berngardt. All rights reserved.
Copyright (c) 2004 Alexander Djourik. All rights reserved.

FILE: 10 - Імбир.
Size: 16484592 Hash: 6AA88FEE421DEAA930C46F972BDA687C Accuracy: -m40
Conclusion: CDDA 99%
Signature: 89546E5CAEA593910951975A2185B0D5E03AAC8F
FILE: 09 - Джармуш.
Size: 35000000 Hash: 12CC0D9FE79B6042F300CBA35F2896D4 Accuracy: -m40
Conclusion: CDDA 100%
Signature: 195EFFF93C912CC18BEDAF18D4C8E48361B3E234
FILE: 08 - Впритул.
Size: 22843292 Hash: 510ABC439647D62913C6761080DD7103 Accuracy: -m40
Conclusion: CDDA 100%
Signature: BC78B158B77A5E43D751C81B7B293D70F9375B7D
FILE: 07 - Над морем.
Size: 19119391 Hash: B901DF425EE794FDE816A08977098868 Accuracy: -m40
Conclusion: CDDA 58%
Signature: 05BCEA4BB7E4B7A5E31B2FC16F2E5E42548DA661
FILE: 06 - Щастя.
Size: 23905010 Hash: 10380B8DE9F21DF471C100534C0811A1 Accuracy: -m40
Conclusion: CDDA 99%
Signature: F247EE1451EB7461ACDBCF868E8E53CA46F66041
FILE: 05 - Драма квін.
Size: 20625214 Hash: 9EE5B3D7F6DB83F087D26271D98D0C12 Accuracy: -m40
Conclusion: CDDA 100%
Signature: 1922DECDE8825ADF89CFC2A5A664D159D6130B6F
FILE: 04 - Поліція.
Size: 33451511 Hash: 6A425EFA05EFD45DC63F8670689C35F8 Accuracy: -m40
Conclusion: CDDA 100%
Signature: EAED1814A1996F69DBF6D670346E19E98B59DF10
FILE: 03 - 27.
Size: 29695992 Hash: 70EB7D62ED73DACB5DD1F357FC567A68 Accuracy: -m40
Conclusion: CDDA 100%
Signature: 60449FCBB4F3747053672C409C4394E4F9B393F6
FILE: 02 - Блек фрайдей.
Size: 28160064 Hash: F67669D473A885D8B89B403FD5714E54 Accuracy: -m40
Conclusion: CDDA 99%
Signature: 3AC3D9B94B9A45A903FE216B67D2A68B586571E6
FILE: 01 - Берлін.
Size: 25828130 Hash: D92F00F30F9C953765FAF44A1D1147A1 Accuracy: -m40
Conclusion: CDDA 100%
Signature: 866B98AF981C0FA71E859A7C616E8231E86F10C9


Якщо Ви справді бажаєте підтримати українське - після прослуховування, якщо музика вам сподобалась, придбайте ліцензійний диск. Підтримаймо вітчизняних виконавців!


Срібний реліз (на рейтинг впливає 50% завантаженого)
 Трекер:    Зареєстрований   

Завантажити / скачати українську музику



відео для новачків



 Зареєстрований:   2020-11-25 21:52
 Розмір:   244 MB 
 Оцінка музики:   9.7/10 (Голосів: 7)
   
Ваш часовий пояс: GMT + 2 Години

Нова тема   Відповісти