Загін самогубців [Розширена версія] / Suicide Squad [Extended Cut] (2016) Remux 1080p Ukr/Eng | Sub Eng

Нові коментарі

Нова тема   Відповісти
Автор Повідомлення
Anonymous 







2020-11-25 18:50  


Загін самогубців [Розширена версія] / Suicide Squad [Extended Cut] (2016) Remux 1080p Ukr/Eng | Sub Eng



«Justice has a bad side»






Альтернативний постер






повнорозмірні зображення відкриються по кліку (з натиснутим CTRL чи кліком середньою кнопкою мишки - у новій вкладці)



Жанр: екшн, пригодницький, фентезі
Країна: США, Канада












Кінокомпанія: Atlas Entertainment, DC Comics, DC Entertainment, Dune Entertainment, Lin Pictures, Warner Bros. Pictures
Режисер: Девід Ейр / David Ayer
Актори: Марго Роббі / Margot Robbie, Вілл Сміт / Will Smith, Джаред Лето / Jared Leto, Джей Кортні / Jai Courtney, Кара Делавінь / Cara Delevingne, Джоел Кіннаман / Joel Kinnaman, Джей Ернандес / Jay Hernandez, Адевале Акіноє-Аґбаже / Adewale Akinnuoye-Agbaje, Карен Фукугара / Karen Fukuhara, Віола Девіс / Viola Davis та інші


Сюжет:
Важкі часи вимагають важких рішень. Урядове агентство змушене зібрати групу злодіїв для виконання небезпечних завдань і цілей. "Загін самогубців" натомість отримає більш короткі терміни позбавлення волі. Але чи варто випускати монстрів навіть заради доброї справи?



Рейтинг MPAA: PG-13 - дітям до 13 років перегляд не бажаний
Вікова категорія: 16+


Тривалість: 02:14:33 (порівняння з театральною версією)
Якість: Blu-Ray Remux 1080p


Відео:
кодек:
розмір кадру: 1920 x 1080
бітрейт: ~ 24800 кб/с

Аудіо # 1:
мова: українська
переклад: професійний дубльований з вставками оригіналу
кодек: 2.0
бітрейт: 192 кб/с
Інформація про дубляж

Переклад: Сергій Ковальчук
Режисер дубляжу: Катерина Брайковська
Звукорежисер: Генадій Алєксєєв
Звукорежисер перезапису: Дмитро Мялковський
Ролі дублювали: Роман Чорний, Дмитро Терещук, Ольга Радчук, Андрій Самінін, Катерина Качан, Володимир Паляниця, Дмитро Сова, Катерина Брайковська та інші.
Фільм дубльовано компанією Postmodern
Аудіо # 2:
мова: англійська
переклад: оригінал
кодек: 5.1
бітрейт: 448 кб/с

Аудіо # 3:
мова: англійська
переклад: оригінал
кодек: TrueHD + Atmos 7.1
бітрейт: 3758 кб/с

Субтитри # 1:
мова: українська (форсовані - на розширені моменти) (переклад виконано з оригіналу)
тип: програмні (м'які)
формат: *.srt

Субтитри # 2:
мова: англійська (full)
тип: програмні (м'які)
формат: *.srt


Збережено оригінальні розділи, як на Blu-ray

Info
Код:
General
Complete name                            : Suicide Squad [Extended Cut] (2016) Remux 1080p [Ukr, Eng] [Video_Hurtom].
Format                                   :
Format version                           : Version 4
File size                                : 27.6 GiB
Duration                                 : 2 h 14 min
Overall bit rate mode                    : Variable
Overall bit rate                         : 29.3 Mb/s
Movie name                               : Загін самогубців [Розширена версія] / Suicide Squad [Extended Cut] (2016)
Encoded date                             : UTC 2020-11-25 16:03:12
Writing application                      : v30.1.0 ('Forever And More') 64-bit
Writing library                          : libebml v1.3.6 + v1.4.9
Cover                                    : Yes
Attachments                              : cover.jpg

Video
ID                                       : 1
Format                                   : AVC
Format/Info                              : Advanced Video Codec
Format profile                           : [email protected]
Format settings                          : CABAC / 4 Ref Frames
Format settings, CABAC                   : Yes
Format settings, RefFrames               : 4 frames
Codec ID                                 : V_MPEG4/ISO/AVC
Duration                                 : 2 h 14 min
Bit rate mode                            : Variable
Bit rate                                 : 24.8 Mb/s
Maximum bit rate                         : 30.0 Mb/s
Width                                    : 1 920 pixels
Height                                   : 1 080 pixels
Display aspect ratio                     : 16:9
Frame rate mode                          : Constant
Frame rate                               : 23.976 (24000/1001) FPS
Color space                              : YUV
Chroma subsampling                       : 4:2:0
Bit depth                                : 8 bits
Scan type                                : Progressive
Bits/(Pixel*Frame)                       : 0.500
Stream size                              : 23.4 GiB (85%)
Language                                 : English
Default                                  : Yes
Forced                                   : No

Audio #1
ID                                       : 2
Format                                   : AC-3
Format/Info                              : Audio Coding 3
Commercial name                          : Dolby Digital
Codec ID                                 : A_AC3
Duration                                 : 2 h 14 min
Bit rate mode                            : Constant
Bit rate                                 : 192 kb/s
Channel(s)                               : 2 channels
Channel layout                           : L R
Sampling rate                            : 48.0 kHz
Frame rate                               : 31.250 FPS (1536 SPF)
Bit depth                                : 16 bits
Compression mode                         : Lossy
Stream size                              : 185 MiB (1%)
Title                                    : 2.0 | 192
Language                                 : Ukrainian
Service kind                             : Complete Main
Default                                  : Yes
Forced                                   : No

Audio #2
ID                                       : 3
Format                                   : AC-3
Format/Info                              : Audio Coding 3
Commercial name                          : Dolby Digital
Codec ID                                 : A_AC3
Duration                                 : 2 h 14 min
Bit rate mode                            : Constant
Bit rate                                 : 448 kb/s
Channel(s)                               : 6 channels
Channel layout                           : L R C LFE Ls Rs
Sampling rate                            : 48.0 kHz
Frame rate                               : 31.250 FPS (1536 SPF)
Bit depth                                : 16 bits
Compression mode                         : Lossy
Stream size                              : 431 MiB (2%)
Title                                    : 5.1 | 448
Language                                 : English
Service kind                             : Complete Main
Default                                  : No
Forced                                   : No

Audio #3
ID                                       : 4
Format                                   : MLP FBA 16-ch
Format/Info                              : Meridian Lossless Packing FBA with 16-channel presentation
Commercial name                          : Dolby TrueHD with Dolby Atmos
Codec ID                                 : A_TRUEHD
Duration                                 : 2 h 14 min
Bit rate mode                            : Variable
Bit rate                                 : 3 758 kb/s
Maximum bit rate                         : 5 976 kb/s
Channel(s)                               : 8 channels
Channel layout                           : L R C LFE Ls Rs Lb Rb
Sampling rate                            : 48.0 kHz
Frame rate                               : 1 200.000 FPS (40 SPF)
Compression mode                         : Lossless
Stream size                              : 3.53 GiB (13%)
Title                                    : TrueHD + Atmos 7.1 | 3758
Language                                 : English
Default                                  : No
Forced                                   : No
Number of dynamic objects                : 11
Bed channel count                        : 1 channel
Bed channel configuration                : LFE

Text #1
ID                                       : 5
Format                                   : UTF-8
Codec ID                                 : S_TEXT/UTF8
Codec ID/Info                            : UTF-8 Plain Text
Duration                                 : 1 h 45 min
Bit rate                                 : 13 b/s
Count of elements                        : 219
Stream size                              : 10.6 KiB (0%)
Title                                    : Forced
Language                                 : Ukrainian
Default                                  : Yes
Forced                                   : No

Text #2
ID                                       : 6
Format                                   : UTF-8
Codec ID                                 : S_TEXT/UTF8
Codec ID/Info                            : UTF-8 Plain Text
Duration                                 : 2 h 7 min
Bit rate                                 : 47 b/s
Count of elements                        : 1619
Stream size                              : 44.6 KiB (0%)
Title                                    : Full
Language                                 : English
Default                                  : No
Forced                                   : No

Menu
00:00:00.000                             : en:00:00:00.000
00:09:08.506                             : en:00:09:08.506
00:20:22.972                             : en:00:20:22.972
00:31:14.706                             : en:00:31:14.706
00:41:04.879                             : en:00:41:04.879
00:52:21.805                             : en:00:52:21.805
01:04:48.843                             : en:01:04:48.843
01:21:12.743                             : en:01:21:12.743
01:32:11.943                             : en:01:32:11.943
01:42:57.671                             : en:01:42:57.671
01:50:58.652                             : en:01:50:58.652
02:04:04.812                             : en:02:04:04.812

Скріншоти










Джерело:
Особиста оцінка: 8 - мені сподобалося


Цитата:
Подяки:
За українську доріжку Covenant.
За синхронізацію розширеної версії Demrandir.
За форсовані субтитри igor911, Demrandir.



ЗАЛИШАЙТЕСЬ ЯКОМОГА ДОВШЕ НА РОЗДАЧІ!
ЗАВАНТАЖИВ САМ - ДАЙ ЗАВАНТАЖИТИ ІНШИМ







Золотий реліз (завантажене не впливає на рейтинг)
 Трекер:    Зареєстрований   

Завантажити / скачати фільм українською



відео для новачків



 Зареєстрований:   2020-11-25 18:50
 Розмір:   27.55 GB 
 Оцінка фільму:   8.4/10 (Голосів: 10)
 ЗАЛИШАЙТЕСЬ ЯКОМОГА ДОВШЕ НА РОЗДАЧІ! ЗАВАНТАЖИВ САМ - ДАЙ ЗАВАНТАЖИТИ ІНШИМ!
   
Інші релізи
   Загін самогубців [Розширена версія] / Suicide Squad [Extended Cut] (2016) 1080p Ukr/Eng | Sub Eng Demrandir  14 / 0   13.54 GB   2017-11-01 16:31 
   Загін самогубців [Розширена версія] / Suicide Squad [Extended Cut] (2016) [2.0 ] Український дубляж + вставки оригіналу Demrandir  1 / 0   185 MB   2017-10-21 12:26 
   Загін самогубців / Suicide Squad (2016) Covenant  10 / 0   1.45 GB   2017-10-15 17:37 
   Загін самогубців [Розширена версія] / Suicide Squad [Extended Cut] (2016) 720p Ukr/Eng | Sub Eng jack  1 / 0   7.84 GB   2016-12-21 04:11 
   Загін самогубців [Розширена версія] / Suicide Squad [Extended Cut] (2016) 720p Ukr/Eng | Sub Eng jack  7 / 0   3.83 GB   2016-12-21 01:03 
   Загін самогубців [Розширена версія] / Suicide Squad [Extended Cut] (2016) AVC Ukr/Eng | Sub Eng Dark Invader  7 / 0   2.67 GB   2016-12-20 11:29 
   Загін самогубців [Розширена версія] / Suicide Squad [Extended Cut] (2016) | Sub Eng Jatx  4 / 0   1.46 GB   2016-12-19 18:35 
   Загін самогубців [Театральна версія] / Suicide Squad (2016) 720p-mini (60 fps) Drool  4 / 0   3.75 GB   2016-12-15 17:12 
   Загін самогубців [Театральна версія] / Suicide Squad [Theatrical Cut] (2016) 1080p Ukr/Eng | Sub Eng igor911  2 / 0   15.34 GB   2016-12-04 09:24 
   Загін самогубців [Театральна версія] / Suicide Squad [Theatrical Cut] (2016) AVC Ukr/Eng | Sub Eng igor911  4 / 0   2.65 GB   2016-12-02 22:33 
   Загін самогубців [Театральна версія] / Suicide Squad [Theatrical Cut] (2016) 720p Ukr/Eng | Sub Eng igor911  1 / 0   6.81 GB   2016-12-02 12:37 
   Загін самогубців [Театральна версія] / Suicide Squad [Theatrical Cut] (2016) 1080p 3D [HalfOverUnder] Ukr/Eng | Sub Eng -VipeR-  1 / 0   8.72 GB   2016-12-01 14:40 
Anonymous 







2021-01-13 16:13  
Гарний фільм!
Чекаємо продовження. Happy

Ваш часовий пояс: GMT + 2 Години

Нова тема   Відповісти