На місці принцеси: Нове життя / The Princess Switch: Switched Again (2020) 720p Eng | sub Ukr

Нові коментарі

Нова тема   Відповісти
Автор Повідомлення
killer2015 
VIP


З нами з: 30.01.15
Востаннє: 19.04.21
Повідомлень: 481

2020-11-25 18:38  
На місці принцеси: Нове життя / The Princess Switch: Switched Again (2020) 720p Eng | sub Ukr

На місці принцеси: Нове життя / The Princess Switch: Switched Again (2020) 720p Eng | sub Ukr


Жанр: комедія, драма, сімейний, мелодрама
Країна: США



Кінокомпанія: Brad Krevoy Television
Режисер: Майк Рол
Актори: Джон Джек, Ванесса Енн Хадженс, Сем Палладіо, Марк Флайшманн, Міа Ллойд, Нік Сагар, Сюань Браун, Локлі Нібор, Ріки Норвуд

Сюжет:
Коли герцогиня Маргарет несподівано успадковує трон Монтенарі і стикається з труднощами з Кевіном, її двійник Стейсі повинна врятувати Різдво і її коронацію, перш ніж новий двійник, тусовщиця Фіона зможе щось зіпсувати.


Тривалість: 01:37:26
Якість:
Відео:
кодек:
розмір кадру: 1280x640
бітрейт: 3 122 кб/с

Аудіо:
мова: англійська
переклад: оригінал
кодек: 5.1
бітрейт: 448 кб/с

Субтитри:
мова: українська (Нетфлікс)
тип: програмні (м'які)
формат: *.srt
МІ
General
Unique ID : 96043965153481975812499317832437512881 (0x48416514ABFEDD8C0594B8F18E04BAB1)
Complete name : G:\Фільми\The Princess Switch Switched Again (2020) 720p_[ukr]\The Princess Switch Switched Again (2020) 720p.
Format :
Format version : Version 4
File size : 2.43 GiB
Duration : 1 h 37 min
Overall bit rate : 3 573 kb/s
Encoded date : UTC 2020-11-25 15:24:00
Writing application : v47.0.0 ('Black Flag') 64-bit
Writing library : libebml v1.3.10 + v1.5.2
Attachments : poster.png

Video
ID : 1
Format : AVC
Format/Info : Advanced Video Codec
Format profile : [email protected]
Format settings : CABAC / 4 Ref Frames
Format settings, CABAC : Yes
Format settings, Reference frames : 4 frames
Codec ID : V_MPEG4/ISO/AVC
Duration : 1 h 37 min
Bit rate : 3 122 kb/s
Width : 1 280 pixels
Height : 640 pixels
Display aspect ratio : 2.000
Frame rate mode : Constant
Frame rate : 23.976 (23976/1000) FPS
Color space : YUV
Chroma subsampling : 4:2:0
Bit depth : 8 bits
Scan type : Progressive
Bits/(Pixel*Frame) : 0.159
Stream size : 2.13 GiB (87%)
Title : USA (Brad Krevoy Television, Netflix)
Writing library : SUPER(C).2017
Language : English
Default : Yes
Forced : No

Audio
ID : 2
Format : AC-3
Format/Info : Audio Coding 3
Commercial name : Dolby Digital
Codec ID : A_AC3
Duration : 1 h 37 min
Bit rate mode : Constant
Bit rate : 448 kb/s
Channel(s) : 6 channels
Channel layout : L R C LFE Ls Rs
Sampling rate : 48.0 kHz
Frame rate : 31.250 FPS (1536 SPF)
Compression mode : Lossy
Delay relative to video : -5 ms
Stream size : 312 MiB (13%)
Title : Original (English)
Language : English
Service kind : Complete Main
Default : No
Forced : No

Text
ID : 3
Format : UTF-8
Codec ID : S_TEXT/UTF8
Codec ID/Info : UTF-8 Plain Text
Duration : 1 h 35 min
Bit rate : 94 b/s
Count of elements : 1353
Stream size : 66.0 KiB (0%)
Language : Ukrainian
Default : No
Forced : No
Скріншоти




Джерело:
Особиста оцінка: 0 - не дивився


 Трекер:    Зареєстрований   

Завантажити / скачати фільм українською



відео для новачків



 Зареєстрований:   2020-11-25 18:38
 Розмір:   2.43 GB 
 Оцінка фільму:   10/10 (Голосів: 1)
   
killer2015 
VIP


З нами з: 30.01.15
Востаннє: 19.04.21
Повідомлень: 481

2020-11-25 18:40  
Саби є вбудованими. Але я витяг їх і додав окремо, щоб не було проблем з відтворенням тощо. Приємного перегляду!


PuMa.ua 
VIP


З нами з: 29.08.08
Востаннє: 20.04.21
Повідомлень: 729

2020-11-25 19:15  
killer2015
це через те що вони вбудовані відео таке мильне? тоді це вже не , а

killer2015 
VIP


З нами з: 30.01.15
Востаннє: 19.04.21
Повідомлень: 481

2020-11-25 20:05  
PuMa.ua

Навіть незнаю. В джерелі вказано що це .

lobotras 
Забанено
Забанено


З нами з: 22.05.16
Востаннє: 20.01.21
Повідомлень: 6

2021-01-07 08:20  
Субтитри - тупий машинний переклад з російської.

"Успадкувала стан", "невірно" замість "неправильно", "ти хочеш змінити Едварду" і ще купа подібних шедеврів машинного перекладу з російської.

Ваш часовий пояс: GMT + 2 Години

Нова тема   Відповісти