Всі жінки відьми (Сезон 5) / Charmed (Season 5) (1080p), Ukr 2002-2003

Нові коментарі

Нова тема   Відповісти
Останній раз роздавалося Ptichkin (2021-02-25)
Автор Повідомлення
Oxysims 
Новенький


З нами з: 07.11.16
Востаннє: 23.02.21
Повідомлень: 15

2020-11-25 16:26  
Всі жінки відьми (Сезон 5) / Charmed (Season5) (1080p), Ukr 2002-2003

Всі жінки відьми (Сезон 5) / Charmed (Season 5) (1080p), Ukr 2002-2003


Жанр: фентезі, мелодрама, комедія
Країна: США



Кінокомпанія: Spelling Television
Режисер: James L. Conway, John Blush
Актори: Холлі Марі Комбс, Алісса Мілано, Роуз МакГоун, Доріан Грегорі, , Джуліан МакМаєн

Сюжет:
Джерело Зла вбите і життя сім'ї Чародійок покращилось: Фібі робить кар'єру, Пейдж кидає роботу і повністю занурюється в магію, а Пайпер чекає дитину. Несподіване повернення Коула з того світу перевертає все догори дриґом, а особливо життя Фібі. Спроби Коула довести, що він змінився, ні до чого не приводять; Фібі ненавидить його, попри те, що він кілька разів рятував їй життя. Тоді Коул вирішує повернутися до свого демонічного коріння, щоб завоювати Фібі силою. Це теж не приводить його до успіху, навіть його невразливість не повернула Фібі. Але сестрам вдається перемогти непереможного.
Також Чародійки мають битись з міфічними Титанами зі Стародавньої Греції. З'являється новий герой — Кріс, незнайомець з майбутнього. Він стверджує, що є світлоносцем, який хоче поліпшити майбутнє, не давши сестрам померти. Титани вбивають більшість Старійшин, Лео доводиться стати одним з них, щоб зробити Чародійок грецькими богинями. Наприкінці сезону Кріс відправляє Лео до Валгалли, щоб самому стати світлоносцем сестер.


Тривалість: 1 серія: 42:00 (цілком серій: 23)
Перелік серій
01.A Witch's Tail Pt1
02.A Witch's Tail Pt2
03.Happily Ever After
04.Siren's Song
05.Witches in Tights
06.The Eyes Have It
07.Sympathy for the Demon
08.A Witch in Time
09.Sam, I Am
10.The Mummy's Tomb
11.The Importance of Being Phoebe
12.Centennial Charmed
13.House Call
14.Sand Francisco Dreamin
15.The Day the Magic Died
16.Baby's First Demon
17.Lucky Charmed
18.Cat House
19.Nymphs Just Want to Have Fun
20.Sense and Sense Ability
21.Necromancing the Stone
22.Oh My Goddess Pt1
23.Oh My Goddess Pt2
Якість:
Відео:
розмір кадру: 1920 х 1080
бітрейт: 7198 кб/с

Аудіо:
мова: українська
переклад: багатоголосий закадровий
кодек: 2.0
бітрейт: 192 кб/с

Джерело озвучення:
Info
General
Complete name :Charmed\Season 5\Charmed.S05E01.A Witch's Tail Pt1.mp4
Format : MPEG-4
Format profile : Base Media / Version 2
Codec ID : mp42 (mp42/mp41)
File size : 2.32 GiB
Duration : 44 min 13 s
Overall bit rate mode : Variable
Overall bit rate : 7 518 kb/s
Encoded date : UTC 2020-11-23 10:15:35
Tagged date : UTC 2020-11-23 10:17:12
TIM : 00:00:00:00
TSC : 25
TSZ : 1

Video
ID : 1
Format : HEVC
Format/Info : High Efficiency Video Coding
Format profile : [email protected]@Main
Codec ID : hvc1
Codec ID/Info : High Efficiency Video Coding
Duration : 44 min 13 s
Bit rate : 7 198 kb/s
Width : 1 920 pixels
Height : 1 080 pixels
Display aspect ratio : 16:9
Frame rate mode : Constant
Frame rate : 25.000 FPS
Color space : YUV
Chroma subsampling : 4:2:0
Bit depth : 8 bits
Bits/(Pixel*Frame) : 0.139
Stream size : 2.22 GiB (96%)
Language : English
Encoded date : UTC 2020-11-23 10:15:35
Tagged date : UTC 2020-11-23 10:15:35
Codec configuration box : hvcC

Audio
ID : 2
Format : LC
Format/Info : Advanced Audio Codec Low Complexity
Codec ID : mp4a-40-2
Duration : 44 min 13 s
Source duration : 44 min 13 s
Bit rate mode : Variable
Bit rate : 317 kb/s
Maximum bit rate : 384 kb/s
Channel(s) : 2 channels
Channel layout : L R
Sampling rate : 48.0 kHz
Frame rate : 46.875 FPS (1024 SPF)
Compression mode : Lossy
Stream size : 100 MiB (4%)
Source stream size : 100 MiB (4%)
Encoded date : UTC 2020-11-23 10:15:35
Tagged date : UTC 2020-11-23 10:15:35
Скріншоти









Особиста оцінка: 8 - мені сподобалося


 Трекер:    Зареєстрований   

Завантажити / скачати серіал українською



відео для новачків



 Зареєстрований:   2020-11-25 16:26
 Розмір:   52.56 GB 
 Оцінка серіалу:   10/10 (Голосів: 2)
   
McNiL 
Частий відвідувач


З нами з: 01.02.13
Востаннє: 24.02.21
Повідомлень: 35

2021-01-30 00:19  
А чи будуть 6-ий та 7-ий сезони у якостi (1080p) ?
Ваш часовий пояс: GMT + 2 Години

Нова тема   Відповісти