The Hardkiss - Акустика. Live (2020) [] | Acoustic / Pop Rock

Нові коментарі

Нова тема   Відповісти
Автор Повідомлення
kolpavel 
VIP


З нами з: 04.05.14
Востаннє: 19.01.21
Повідомлень: 1366

2020-11-25 14:24  
The Hardkiss - Акустика. Live (2020) [] | Acoustic / Pop Rock

The Hardkiss - Акустика. Live (2020) [] | Acoustic / Pop Rock


Стиль: Acoustic Pop Rock
Країна, місто: Україна, Київ
Сайти: Офіційний сайт
Видавець: Comp Music Ltd
Виконавці:
Юлія Саніна – спів, тексти, музика
Валерій «Val» Бебко – музика, програмування, гітара
Клим Лисюк
Євген Кібелєв
Пісні:

    01. Мелодія (Acoustic Live) - 05:18
    02. 00:00 (Acoustic Live) - 04:11
    03. Антарктида (Acoustic Live) - 04:21
    04. Андромеда (Acoustic Live) - 01:42
    05. Жива (Acoustic Live) - 04:21
    06. Кораблі (Acoustic Live) - 04:02
    07. Make-Up (Acoustic Live) - 03:53
    08. Tony, Talk! (Acoustic Live) - 05:22
    09. Part of Me (Acoustic Live) - 04:53
    10. October (Acoustic Live) - 05:12
    11. Прірва (Acoustic Live) - 03:04
    12. Де ти є (Acoustic Live) - 04:08
    13. Хто, як не ти (Acoustic Live) - 03:33
    14. Коханці (Acoustic Live) - 04:27
    15. Helpless / Щедрик (Acoustic Live) - 05:08
    16. Stones (Acoustic Live) - 04:40
    17. Серце (Acoustic Live) - 03:18
    18. Журавлі (Acoustic Live) - 04:09

Тривалість: 01:15:50
Мова: українська, крім треків (7-10,15,16) - англійська.
Аудіо-кодек:
Бітрейт: 734 - 1000 кб/с
Джерело: трекер
Додаткова інформація:
Лог DRM
foobar2000 1.5.4 / Dynamic Range Meter 1.1.1
log date: 2020-07-04 13:12:40

--------------------------------------------------------------------------------
Analyzed: The Hardkiss / Акустика. Live
--------------------------------------------------------------------------------

DR Peak RMS Duration Track
--------------------------------------------------------------------------------
DR6 -0.24 dB -8.90 dB 5:18 01-Мелодія (Acoustic Live)
DR6 -0.24 dB -8.93 dB 4:12 02-00 00 (Acoustic Live)
DR6 -0.24 dB -8.67 dB 4:22 03-Антарктида (Acoustic Live)
DR14 -0.50 dB -17.11 dB 1:42 04-Андромеда (Acoustic Live)
DR6 -0.24 dB -8.52 dB 4:22 05-Жива (Acoustic Live)
DR5 -0.24 dB -8.08 dB 4:02 06-Кораблі (Acoustic Live)
DR5 -0.24 dB -7.23 dB 3:54 07-Make-Up (Acoustic Live)
DR6 -0.24 dB -8.39 dB 5:22 08-Tony, Talk! (Acoustic Live)
DR5 -0.24 dB -7.63 dB 4:53 09-Part of Me (Acoustic Live)
DR9 -0.24 dB -12.52 dB 5:13 10-October (Acoustic Live)
DR6 -0.24 dB -8.95 dB 3:05 11-Прірва (Acoustic Live)
DR5 -0.24 dB -8.05 dB 4:09 12-Де ти є (Acoustic Live)
DR6 -0.24 dB -9.02 dB 3:34 13-Хто, як не ти (Acoustic Live)
DR6 -0.24 dB -8.91 dB 4:28 14-Коханці (Acoustic Live)
DR6 -0.24 dB -9.99 dB 5:09 15-Helpless Щедрик (Acoustic Live)
DR6 -0.24 dB -9.23 dB 4:40 16-Stones (Acoustic Live)
DR6 -0.24 dB -9.77 dB 3:19 17-Серце (Acoustic Live)
DR6 -0.24 dB -8.85 dB 4:10 18-Журавлі (Acoustic Live)
--------------------------------------------------------------------------------

Number of tracks: 18
Official DR value: DR6

Samplerate: 44100 Hz
Channels: 2
Bits per sample: 16
Bitrate: 907 kbps
Codec:
================================================================================
Лог якостi

-----------------------

DON'T MODIFY THIS FILE

-----------------------

PERFORMER: auCDtect Task Manager, ver. 1.6.0 RC1 build 1.6.0.1
Copyright (c) 2008-2010 y-soft. All rights reserved
http://y-soft.org

ANALYZER: auCDtect: CD records authenticity detector, version 0.8.2
Copyright (c) 2004 Oleg Berngardt. All rights reserved.
Copyright (c) 2004 Alexander Djourik. All rights reserved.

FILE: 14. Коханці (Acoustic Live).
Size: 31462587 Hash: A9EB104F650CF7ED0E9B21A8E22906F5 Accuracy: -m0
Conclusion: CDDA 100%
Signature: 3737929C664162CBEB9A231F98C8E2AD5F9312E8
FILE: 13. Хто, як не ти (Acoustic Live).
Size: 26211702 Hash: F9EDB9E48A93A955A1947FA21C6769C2 Accuracy: -m0
Conclusion: MPEG 95%
Signature: FFDB86C739141BE1311320C9C0A1328C07AE07F0
FILE: 12. Де ти є (Acoustic Live).
Size: 28085641 Hash: 6ADAF620580313AEED606B7071F1D445 Accuracy: -m0
Conclusion: CDDA 99%
Signature: E9BB4F095646883BCA0DFFC82245F70D62311976
FILE: 11. Прірва (Acoustic Live).
Size: 21165068 Hash: 7AA0F6CDED999C7298FD36A942ADB536 Accuracy: -m0
Conclusion: MPEG 95%
Signature: 3E04052D4CC1DC21ED9F72B375076A0B74F41371
FILE: 10. October (Acoustic Live).
Size: 30208998 Hash: CA037DF4DC0B6525D3C828B61D76EA52 Accuracy: -m0
Conclusion: CDDA 99%
Signature: 8830A3B041CDB1C0B6AC6234D7C1953B018DD62C
FILE: 09. Part of Me (Acoustic Live).
Size: 36710930 Hash: 06EA521D8231C1232E56443AC18EC7D4 Accuracy: -m0
Conclusion: MPEG 95%
Signature: E22F8647003FF2C6585D28413AB3AAF486801857
FILE: 08. Tony, Talk! (Acoustic Live).
Size: 38196836 Hash: C2FBE098A2A35050ED68EE9D644DF83C Accuracy: -m0
Conclusion: MPEG 95%
Signature: FB16D8AFAC32677FAC3165836B45E13C952938E2
FILE: 07. Make-Up (Acoustic Live).
Size: 29476370 Hash: 5D69621D6D16A62B32F548B0CAD3A345 Accuracy: -m0
Conclusion: MPEG 95%
Signature: D926B48B2825526EE597AF6E02CC680A50ABCC19
FILE: 06. Кораблі (Acoustic Live).
Size: 29495508 Hash: 25E36D3EDE95F5CA0B9E5CC61DC8FE1F Accuracy: -m0
Conclusion: MPEG 95%
Signature: 9B1FD687B64CB09276493D9D5968A937C4F4C972
FILE: 05. Жива (Acoustic Live).
Size: 31347343 Hash: D56313A5223217563F987DF04CF33992 Accuracy: -m0
Conclusion: MPEG 95%
Signature: 6ABD822D6638B8DDD94C3BCA8E45F444AA0A0093
FILE: 04. Андромеда (Acoustic Live).
Size: 9680544 Hash: 970EBE44343CDAB8768E67B550CD47BA Accuracy: -m0
Conclusion: CDDA 100%
Signature: 0EDF36114546A84510A163FD0173DE4A0AD8D5AA
FILE: 03. Антарктида (Acoustic Live).
Size: 30230798 Hash: 0CCED4D9E477B7D5D32D1C5ED9CF20C7 Accuracy: -m0
Conclusion: MPEG 95%
Signature: 399F0D0AFF03D4A5592094B637CF6057B53F1A29
FILE: 02. 00 00 (Acoustic Live).
Size: 29136803 Hash: 078E92835E482118BFB40703882468B0 Accuracy: -m0
Conclusion: MPEG 95%
Signature: 7E9A9329F34372BABD383D8CAEA3E784008CA52F
FILE: 01. Мелодія (Acoustic Live).
Size: 37361509 Hash: B968B2D3C49579572C9AFE62221B05C8 Accuracy: -m0
Conclusion: CDDA 100%
Signature: ED166200687565427395BC9DB274D85074D56536
FILE: 18. Журавлі (Acoustic Live).
Size: 28569070 Hash: 0C36B8216DFE0A5EF3B6F39C14601A53 Accuracy: -m0
Conclusion: MPEG 95%
Signature: 837B2898236A02C3C0B98E660DD7A0E7008692CE
FILE: 17. Серце (Acoustic Live).
Size: 22097283 Hash: 26D9EF438A3DFD5451A1751252FF6085 Accuracy: -m0
Conclusion: MPEG 95%
Signature: F7A22467EAB14EE3266294FE6B60798C686E850D
FILE: 16. Stones (Acoustic Live).
Size: 32465874 Hash: 7D8B9D9D09D6BE2A98B87B6E51D97E4F Accuracy: -m0
Conclusion: MPEG 95%
Signature: 8CF79C9CBFC0C68C4769387BF91D8543AB10F012
FILE: 15. Helpless Щедрик (Acoustic Live).
Size: 34480852 Hash: 56CFE4F09376CA9DE9B70E83E0ED8CAC Accuracy: -m0
Conclusion: MPEG 95%
Signature: 4C9EA9055BFBB9C982C8DCDDA6B837F9D8081565


Якщо Ви справді бажаєте підтримати українське - після прослуховування, якщо музика вам сподобалась, придбайте ліцензійний диск. Підтримаймо вітчизняних виконавців!


Срібний реліз (на рейтинг впливає 50% завантаженого)
 Трекер:    Зареєстрований   

Завантажити / скачати українську музику



відео для новачків



 Зареєстрований:   2020-11-25 14:24
 Розмір:   503 MB 
 Оцінка музики:   9.3/10 (Голосів: 10)
   
Ваш часовий пояс: GMT + 2 Години

Нова тема   Відповісти