Біла Вежа - Там, де весна (2020) [] | Rock

Нові коментарі

Нова тема   Відповісти
Автор Повідомлення
kolpavel 
VIP


З нами з: 04.05.14
Востаннє: 25.01.21
Повідомлень: 1366

2020-11-25 00:33  
Біла Вежа - Там, де весна (2020) [] | Rock

Біла Вежа - Там, де весна (2020) [] | Rock


Стиль: Rock
Країна, місто: Україна, Київ
Сайти: Офіційний сайт
Видавець: гурт
Виконавці:
Максим Іващенко — вокаліст.
Євген Скоценко — бас-гітара.
Федір Ходаков — барабани.
Ярослав Гравицький — гітара.
Андрій Томашенко (Топік) — гітара.
Пісні:
    01 - На папері - 03:1
    02 - Там де весна - 03:27
    03 - Не ангел - 02:57
    04 - Давай - 04:19
    05 - Вона одна - 03:15
    06 - Відбитки - 03:06
    07 - Єдине ціле - 02:38
    08 - Криптоніт - 04:07
    09 - Янгол - 03:05
    10 - Поле троянд - 03:03

Тривалість: 00:33:13
Мова: українська
Аудіо-кодек:
Бітрейт: 926 - 1098 кб/с
Джерело: трекер
Додаткова інформація:
Лог DRM
foobar2000 1.4.2 / Dynamic Range Meter 1.1.1
log date: 2020-11-20 08:34:31

--------------------------------------------------------------------------------
Analyzed: Біла Вежа / Там, де весна
--------------------------------------------------------------------------------

DR Peak RMS Duration Track
--------------------------------------------------------------------------------
DR3 -0.05 dB -5.26 dB 3:13 01-На папері
DR5 -0.32 dB -6.89 dB 3:28 02-Там де весна
DR5 -0.32 dB -7.24 dB 2:57 03-Не ангел
DR4 0.00 dB -5.61 dB 4:19 04-Давай
DR5 -0.17 dB -6.24 dB 3:15 05-Вона одна
DR4 0.00 dB -5.21 dB 3:06 06-Відбитки
DR5 0.00 dB -7.50 dB 2:38 07-Єдине ціле
DR4 -0.32 dB -6.96 dB 4:07 08-Криптоніт
DR5 0.00 dB -6.73 dB 3:05 09-Янгол
DR5 -0.25 dB -7.67 dB 3:04 10-Поле троянд
--------------------------------------------------------------------------------

Number of tracks: 10
Official DR value: DR4

Samplerate: 44100 Hz
Channels: 2
Bits per sample: 16
Bitrate: 929 kbps
Codec:
================================================================================
Лог якостi
-----------------------

DON'T MODIFY THIS FILE

-----------------------

PERFORMER: auCDtect Task Manager, ver. 1.5.1RC3 build 1.5.1.4
Copyright (c) 2008-2010 y-soft. All rights reserved
http://y-soft.org

ANALYZER: auCDtect: CD records authenticity detector, version 0.8.2
Copyright (c) 2004 Oleg Berngardt. All rights reserved.
Copyright (c) 2004 Alexander Djourik. All rights reserved.

FILE: 10 - Поле Троянд.
Size: 21405044 Hash: CC01CEF2F8E8A08BDDE9440E749CCD69 Accuracy: -m40
Conclusion: CDDA 100%
Signature: C956A41AF80083A017B5336F2482DB098ECE8010
FILE: 09 - Янгол.
Size: 23475647 Hash: B5B80512DBFC10C188229FBEE746E64E Accuracy: -m40
Conclusion: CDDA 100%
Signature: E8F12D2AB06E28F983A6C3532E360F819FB3C4DB
FILE: 08 - Криптоніт.
Size: 31932878 Hash: D5B3AF5A3A6F7B83A1420DA6E1D145EB Accuracy: -m40
Conclusion: CDDA 100%
Signature: CE230404999453A6B07D8E57636CF2D2AF8AA571
FILE: 07 - Єдине Ціле.
Size: 18397269 Hash: 3347361D2A7597D13420831170149D07 Accuracy: -m40
Conclusion: CDDA 99%
Signature: E74BBE8586762C1B8BEE4AF1A98F5328603E1E8F
FILE: 06 - Відбитки.
Size: 24875680 Hash: DE5123D00371429B841425A1A0493E55 Accuracy: -m40
Conclusion: CDDA 100%
Signature: 7C278D26960ABD49393BCB175E98BAC15EDB9E4F
FILE: 05 - Вона Одна.
Size: 25191421 Hash: 5C86AF5B7C1D9481FC866D39CD97F236 Accuracy: -m40
Conclusion: CDDA 100%
Signature: 4DCFA5D17A83397B8562F700B8C0B0DBFBDA17CF
FILE: 04 - Давай.
Size: 35638215 Hash: 9856A9FA141A7446E9BDEFCC6FB43356 Accuracy: -m40
Conclusion: CDDA 100%
Signature: DE3C50FA926065C84A617C4111E2B163E71F3EC8
FILE: 03 - Не Ангел.
Size: 22376333 Hash: FF2672582E38864679E70CE5B1C2EF65 Accuracy: -m40
Conclusion: CDDA 100%
Signature: 4D76E816EE2D0BC0337F1A9144BCF636310B7615
FILE: 02 - Там Де Весна.
Size: 25962699 Hash: 4C69140EDF02B8370704D8AD31761EE9 Accuracy: -m40
Conclusion: CDDA 100%
Signature: EEF070920A27AC12089827C346ADF0067B6D257D
FILE: 01 - На Папері.
Size: 24902954 Hash: 44941E3B25EA57BEDD89919F7F81D91F Accuracy: -m40
Conclusion: CDDA 100%
Signature: E8337E1809B1A6244C4CE4EEC45045BCCCB2F74D


Якщо Ви справді бажаєте підтримати українське - після прослуховування, якщо музика вам сподобалась, придбайте ліцензійний диск. Підтримаймо вітчизняних виконавців!


Срібний реліз (на рейтинг впливає 50% завантаженого)
 Трекер:    Зареєстрований   

Завантажити / скачати українську музику



відео для новачків



 Зареєстрований:   2020-11-25 00:40
 Розмір:   243 MB 
 Оцінка музики:   10/10 (Голосів: 5)
   
kolpavel 
VIP


З нами з: 04.05.14
Востаннє: 25.01.21
Повідомлень: 1366

2020-11-25 10:36  
Ваш часовий пояс: GMT + 2 Години

Нова тема   Відповісти