Всі жінки відьми (Сезон 4) / Charmed (Season 4) (1080p) Ukr 2001-2002

Нові коментарі

Нова тема   Відповісти
Останній раз роздавалося marinich (2021-03-01)
Автор Повідомлення
Oxysims 
Новенький


З нами з: 07.11.16
Востаннє: 01.03.21
Повідомлень: 15

2020-11-24 19:10  
Всі жінки відьми (Сезон 4) / Charmed (Season 4) (1080p) Ukr 2001-2002

Всі жінки відьми (Сезон 4) / Charmed (Season 4) (1080p) Ukr 2001-2002


Жанр: фентезі, мелодрама, комедія
Країна: США



Кінокомпанія: Spelling Television
Режисер: Michael Schultz, Chris Long, Joel J. Feigenbaum
Актори: Холлі Марі Комбс, Алісса Мілано, Роуз МакГоун, Доріан Грегорі, , Джуліан МакМаєн

Сюжет:
Згідно з сюжетом, Джерелу Зла вдається викрасти Фібі. Лео і Коул вирушають на її порятунок; повернувшись додому, вони виявляють Прю мертвою. Сила Трьох руйнується. Дія серіалу починається в ніч перед похоронами Прю — Пайпер намагається воскресити її заклинанням, що «викликає втрачену відьму», але несподівано це заклинання викликає Пейдж — молоду дівчину, сироту, що працює в соціальній службі. Дух бабусі Чародійок відвідує Пайпер і натякає, що доля Сили Трьох ще не закінчена. Тим часом Фібі і Коул розшукують Пейдж і раптово виявляють, що вона здатна сферитися[nl]; її саму це дивує не менше. Лео не може цього пояснити і йде за порадою до Старійшин. Коул відправляється на розвідку до підземного світу і дізнається, що Пейдж, згідно з прогнозом, здатна відновити Силу Трьох. Бабуся і мати Чародійок пояснюють, що Пейдж — їхня сестра. Пейдж довелося віддати, оскільки у той час союзи між світлоносцями і відьмами були заборонені і Чародійок могли позбавити сил як покарання.
Протягом цього сезону сестри борються з Джерелом у різних проявах. Вбиваючи Джерело, Коул стає новим Джерелом, у ньому борються два єства: Людина і Демон. Демон врешті-решт перемагає. Він і Фібі переходять на бік Зла. Цьому сприяє те, що Фібі чекає сильну демонічну дитину. Але з часом вона розуміє, що помилилася. Разом із сестрами вони долають Коула. Провидиця віднімає у Фібі ще не народжене немовля. Згодом Чародійки вбивають їх під час коронації.


Тривалість: 1 серія: 42:00 (цілком серій: 22)
Перелік серій
01.Charmed Again Pt 1
02. Charmed Again Pt 2
03.Hell Hath No Fury
04.Enter the Demon
05.Size Matters
06.A Knight to Remember
07.Brain Drain
08.Black as Cole
09.Muse to My Ears
10.A Paige from the Past
11.Trial by Magic
12.Lost and Bound
13.Charmed and Dangerous
14.The Three Faces of Phoebe
15.Marry-Go-Round
16.The Fifth Halliwell
17.Saving Private Leo
18.Bite Me
19.We're Off to See the Wizard
20.Long Live the Queen
21.Womb Raider
22.Witch Way Now
Якість:
Відео:
розмір кадру: 1920 х 1080
бітрейт: 7192 кб/с

Аудіо:
мова: українська
переклад: багатоголосий закадровий
кодек: 2.0
бітрейт: 192 кб/с

Джерело озвучення:
Info
General
Complete name : Charmed\Season 4\Charmed.S04E01.Charmed Again Pt 1.mp4
Format : MPEG-4
Format profile : Base Media / Version 2
Codec ID : mp42 (mp42/mp41)
File size : 2.21 GiB
Duration : 42 min 5 s
Overall bit rate mode : Variable
Overall bit rate : 7 512 kb/s
Encoded date : UTC 2020-11-24 10:33:29
Tagged date : UTC 2020-11-24 10:40:56
TIM : 00:00:00:00
TSC : 25
TSZ : 1

Video
ID : 1
Format : HEVC
Format/Info : High Efficiency Video Coding
Format profile : [email protected]@Main
Codec ID : hvc1
Codec ID/Info : High Efficiency Video Coding
Duration : 42 min 5 s
Bit rate : 7 192 kb/s
Width : 1 920 pixels
Height : 1 080 pixels
Display aspect ratio : 16:9
Frame rate mode : Constant
Frame rate : 25.000 FPS
Color space : YUV
Chroma subsampling : 4:2:0
Bit depth : 8 bits
Bits/(Pixel*Frame) : 0.139
Stream size : 2.11 GiB (96%)
Language : English
Encoded date : UTC 2020-11-24 10:33:29
Tagged date : UTC 2020-11-24 10:33:29

Audio
ID : 2
Format :
Format/Info : Advanced Audio Codec
Format profile : LC
Codec ID : mp4a-40-2
Duration : 42 min 5 s
Source duration : 42 min 5 s
Bit rate mode : Variable
Bit rate : 317 kb/s
Maximum bit rate : 375 kb/s
Channel(s) : 2 channels
Channel positions : Front: L R
Sampling rate : 48.0 kHz
Frame rate : 46.875 FPS (1024 SPF)
Compression mode : Lossy
Stream size : 95.5 MiB (4%)
Source stream size : 95.5 MiB (4%)
Encoded date : UTC 2020-11-24 10:33:29
Tagged date : UTC 2020-11-24 10:33:29
Скріншоти









Особиста оцінка: 7 - моїй подрузі не сподобалося


 Трекер:    Зареєстрований   

Завантажити / скачати серіал українською



відео для новачків



 Зареєстрований:   2020-11-24 19:10
 Розмір:   48.17 GB 
 Оцінка серіалу:   9.3/10 (Голосів: 3)
   
Peregrin Took 
Новенький


З нами з: 23.04.16
Востаннє: 27.02.21
Повідомлень: 5

2021-01-15 22:05  
УВАГА у 14 серії -кацапський переклад
Ваш часовий пояс: GMT + 2 Години

Нова тема   Відповісти