Перший месник: Протистояння / Captain America: Civil War (2016) UHD Remux 4K 2160p HDR H.265 Ukr/Eng | Sub Eng

Нові коментарі

Нова тема   Відповісти
Автор Повідомлення
RoMeL 
Відео Гуртом - підтримка та поширення
Відео Гуртом - підтримка та поширення


З нами з: 09.07.08
Востаннє: 27.01.21
Повідомлень: 323

2020-11-24 00:34  
Перший месник: Протистояння / Captain America: Civil War (2016) UHD Remux 4K 2160p HDR H.265 Ukr/Eng | Sub Eng



Жанр: екшн, пригодницький, фантастика
Країна: США



Кінокомпанія: Marvel Studios, Vita-Ray Dutch Productions (III), Studio Babelsberg
Режисер: Ентоні Руссо, Джо Руссо
Актори: Кріс Еванс, Роберт Дауні-молодший, Скарлетт Йоганссен, Себастьян Стен, Ентоні Макі, Дон Чідл, Джеремі Ренер, Чедвік Боузман, Пол Беттані, Елізабет Олсен, Пол Радд, Емілі ВанКемп, Том Голланд, Даніель Брюль, Френк Ґрілло

Сюжет:
Месники під керівництвом Капітана Америки виявляються учасниками руйнівного інциденту, що має міжнародний масштаб. Ці події змушують уряд замислитися над тим, щоб почати регулювати дії всіх людей з особливими здібностями, ввівши «Акт про реєстрацію супергероїв», змушуючи їх підкорятися ООН. Бачачи в цьому договорі порушення громадянських прав, у що він вірить, Стів Роджерс відкрито повстає проти нового режиму, ведучи за собою групу героїв, що підтримують його думку. У свою чергу, Тоні Старк бачить сенс у новому договорі і стає на чолі героїв, які підтримують його. Все це призводить до неминучого розколу Месників і війні між сторонами. Б'ючись один з одним, Старк і Роджерс не знають про те, що таємничий Барон Земо вже будує свої власні плани, скориставшись розколом найбільших героїв Землі.


Тривалість: 02:27:41
Якість: Remux 4K 2160p HDR H.265
Відео:
кодек: H.265 (HEVC)
розмір кадру: 3840 х 2160
бітрейт: 42,0 Мбіт/сек
бітова глибина: 10 біт
кольоровий простір: BT.2020 (HDR)

Увага! Перед завантаженням переконайтесь, що ваш пристрій відтворення (та/або ПЗ) підтримує H.265 (HEVC)

Аудіо # 1:
мова: українська
переклад: професійний дубльований
кодек: -HD MA 5.1
бітрейт: 3745 кб/с

Аудіо # 2:
мова: англійська
переклад: оригінал
кодек: Dolby TrueHD with Dolby Atmos 7.1
бітрейт: 4620 кб/с

Аудіо # 3:
мова: англійська
переклад: оригінал
кодек: 5.1
бітрейт: 640 кб/с

Аудіо # 4:
мова: англійська, коментарій до фільму Anthony Russo/Christopher Markus/Stephen McFeely
переклад: оригінал
кодек: 2.0
бітрейт: 192 кб/с

Субтитри # 1:
мова: англійська (форсовані)
тип: програмні (м'які)
формат: *.pgs

Субтитри # 2-3:
мова: англійська (Full,SDH)
тип: програмні (м'які)
формат: *.pgs

Субтитри # 4:
мова: англійська, коментарій до фільму Anthony Russo/Christopher Markus/Stephen McFeely
тип: програмні (м'які)
формат: *.pgs
Info
Код:
General
Unique ID                                : 222375844834669624845484371768894814071 (0xA74C07A416CB0E362A0B72177047F777)
Complete name                            : /Volumes/Download/Movies/Captain.America.Civil.War.2016.Remux.2160p.HDR.[Ukr.Eng].
Format                                   :
Format version                           : Version 4
File size                                : 52.9 GiB
Duration                                 : 2 h 27 min
Overall bit rate mode                    : Variable
Overall bit rate                         : 51.3 Mb/s
Movie name                               : Captain.America.Civil.War.2016.Remux.2160p.HDR.[Ukr.Eng]
Encoded date                             : UTC 2020-11-22 16:11:09
Writing application                      : v47.0.0 ('Black Flag') 64-bit
Writing library                          : libebml v1.3.10 + v1.5.2

Video
ID                                       : 1
Format                                   : HEVC
Format/Info                              : High Efficiency Video Coding
Format profile                           : Main [email protected]@High
HDR format                               : SMPTE ST 2086, HDR10 compatible
Codec ID                                 : V_MPEGH/ISO/HEVC
Duration                                 : 2 h 27 min
Bit rate                                 : 42.0 Mb/s
Width                                    : 3 840 pixels
Height                                   : 2 160 pixels
Display aspect ratio                     : 16:9
Frame rate mode                          : Constant
Frame rate                               : 23.976 (24000/1001) FPS
Color space                              : YUV
Chroma subsampling                       : 4:2:0 (Type 2)
Bit depth                                : 10 bits
Bits/(Pixel*Frame)                       : 0.211
Stream size                              : 43.3 GiB (82%)
Default                                  : Yes
Forced                                   : No
Color range                              : Limited
Color primaries                          : BT.2020
Transfer characteristics                 : PQ
Matrix coefficients                      : BT.2020 non-constant
Mastering display color primaries        : Display P3
Mastering display luminance              : min: 0.0020 cd/m2, max: 1000 cd/m2
Maximum Content Light Level              : 717 cd/m2
Maximum Frame-Average Light Level        : 578 cd/m2

Audio #1
ID                                       : 2
Format                                   : XLL
Format/Info                              : Digital Theater Systems
Commercial name                          : -HD Master Audio
Codec ID                                 : A_DTS
Duration                                 : 2 h 27 min
Bit rate mode                            : Variable
Bit rate                                 : 3 745 kb/s
Channel(s)                               : 6 channels
Channel layout                           : C L R Ls Rs LFE
Sampling rate                            : 48.0 kHz
Frame rate                               : 93.750 FPS (512 SPF)
Bit depth                                : 24 bits
Compression mode                         : Lossless
Stream size                              : 3.86 GiB (7%)
Title                                    : Ukrainian
Language                                 : Ukrainian
Default                                  : Yes
Forced                                   : No

Audio #2
ID                                       : 3
Format                                   : MLP FBA 16-ch
Format/Info                              : Meridian Lossless Packing FBA with 16-channel presentation
Commercial name                          : Dolby TrueHD with Dolby Atmos
Codec ID                                 : A_TRUEHD
Duration                                 : 2 h 27 min
Bit rate mode                            : Variable
Bit rate                                 : 4 620 kb/s
Maximum bit rate                         : 7 659 kb/s
Channel(s)                               : 8 channels
Channel layout                           : L R C LFE Ls Rs Lb Rb
Sampling rate                            : 48.0 kHz
Frame rate                               : 1 200.000 FPS (40 SPF)
Compression mode                         : Lossless
Stream size                              : 4.77 GiB (9%)
Title                                    : TrueHD Atmos 7.1
Language                                 : English
Default                                  : No
Forced                                   : No
Number of dynamic objects                : 13
Bed channel count                        : 1 channel
Bed channel configuration                : LFE

Audio #3
ID                                       : 4
Format                                   : AC-3
Format/Info                              : Audio Coding 3
Commercial name                          : Dolby Digital
Codec ID                                 : A_AC3
Duration                                 : 2 h 27 min
Bit rate mode                            : Constant
Bit rate                                 : 640 kb/s
Channel(s)                               : 6 channels
Channel layout                           : L R C LFE Ls Rs
Sampling rate                            : 48.0 kHz
Frame rate                               : 31.250 FPS (1536 SPF)
Compression mode                         : Lossy
Stream size                              : 676 MiB (1%)
Title                                    : 5.1
Language                                 : English
Service kind                             : Complete Main
Default                                  : No
Forced                                   : No

Audio #4
ID                                       : 5
Format                                   : AC-3
Format/Info                              : Audio Coding 3
Commercial name                          : Dolby Digital
Codec ID                                 : A_AC3
Duration                                 : 2 h 27 min
Bit rate mode                            : Constant
Bit rate                                 : 192 kb/s
Channel(s)                               : 2 channels
Channel layout                           : L R
Sampling rate                            : 48.0 kHz
Frame rate                               : 31.250 FPS (1536 SPF)
Compression mode                         : Lossy
Stream size                              : 203 MiB (0%)
Title                                    : Commentary by Anthony Russo/Christopher Markus/Stephen McFeely
Language                                 : English
Service kind                             : Complete Main
Default                                  : No
Forced                                   : No

Text #1
ID                                       : 6
Format                                   : PGS
Muxing mode                              : zlib
Codec ID                                 : S_HDMV/PGS
Codec ID/Info                            : Picture based subtitle format used on BDs/HD-DVDs
Duration                                 : 1 h 44 min
Bit rate                                 : 458 b/s
Count of elements                        : 118
Stream size                              : 352 KiB (0%)
Title                                    : English (Forced only)
Language                                 : English
Default                                  : Yes
Forced                                   : Yes

Text #2
ID                                       : 7
Format                                   : PGS
Muxing mode                              : zlib
Codec ID                                 : S_HDMV/PGS
Codec ID/Info                            : Picture based subtitle format used on BDs/HD-DVDs
Duration                                 : 2 h 25 min
Bit rate                                 : 29.2 kb/s
Count of elements                        : 3392
Stream size                              : 30.5 MiB (0%)
Title                                    : English
Language                                 : English
Default                                  : No
Forced                                   : No

Text #3
ID                                       : 8
Format                                   : PGS
Muxing mode                              : zlib
Codec ID                                 : S_HDMV/PGS
Codec ID/Info                            : Picture based subtitle format used on BDs/HD-DVDs
Duration                                 : 2 h 26 min
Bit rate                                 : 35.4 kb/s
Count of elements                        : 4210
Stream size                              : 37.1 MiB (0%)
Title                                    : English (SDH)
Language                                 : English
Default                                  : No
Forced                                   : No

Text #4
ID                                       : 9
Format                                   : PGS
Muxing mode                              : zlib
Codec ID                                 : S_HDMV/PGS
Codec ID/Info                            : Picture based subtitle format used on BDs/HD-DVDs
Duration                                 : 2 h 27 min
Bit rate                                 : 80.1 kb/s
Count of elements                        : 6424
Stream size                              : 84.5 MiB (0%)
Title                                    : English (Commentary)
Language                                 : English
Default                                  : No
Forced                                   : No
Скріншоти






Джерело: &
Особиста оцінка: 10 - без зайвих вагань рекомендую всім!


 Трекер:    Зареєстрований   

Завантажити / скачати фільм українською



відео для новачків



 Зареєстрований:   2020-11-24 01:08
 Розмір:   52.91 GB 
 Оцінка фільму:   10/10 (Голосів: 3)
   
Інші релізи
   Перший месник: Протистояння / Captain America: Civil War (2016) AVC [IMAX Edition] Ukr/Eng | Sub Eng gunterZhlob  7 / 0   2.88 GB   2017-11-01 12:59 
   Перший месник: Протистояння / Captain America: Civil War [IMAX Edition] (2016) 1080p 3D [HalfOverUnder] Ukr/Eng | Sub Eng GEORGKys  2 / 0   11.04 GB   2016-09-25 10:03 
   Перший месник: Протистояння / Captain America: Civil War (2016) 1080p Ukr/Eng | Sub Eng [IMAX] XXXVIRUS  4 / 0   15.59 GB   2016-09-10 11:25 
   Перший месник: Протистояння / Captain America: Civil War (2016) 1080p 3D [HalfOverUnder] Ukr/Eng | Sub Eng -VipeR-  1 / 3   11.04 GB   2016-09-05 13:43 
   Перший месник: Протистояння / Captain America: Civil War (2016) 1080p Ukr/Eng | Sub Eng 11FrYkT  5 / 0   18.58 GB   2016-08-31 06:24 
   Перший месник: Протистояння / Captain America: Civil War (2016) Remux 1080p Ukr/Eng | Sub Eng 11FrYkT  4 / 0   36.05 GB   2016-08-30 19:18 
   Перший месник: Протистояння / Captain America: Civil War (2016) AVC AngryBirdsUA  8 / 0   2.18 GB   2016-08-30 18:05 
   Перший месник: Протистояння / Captain America: Civil War (2016) 720p Ukr/Eng | Sub Eng 11FrYkT  12 / 0   6.62 GB   2016-08-30 18:05 
   Перший месник: Протистояння / Captain America: Civil War (2016) Gelios  14 / 0   2.18 GB   2016-08-30 18:05 
bot 
робот


З нами з: 30.09.07
Востаннє: 26.05.05
Повідомлень: 26989

2020-11-24 00:35  
Тему перенесено з Фільми в HD до форуму Анонси релізів


RoMeL

bot 
робот


З нами з: 30.09.07
Востаннє: 26.05.05
Повідомлень: 26989

2020-11-24 01:08  
Тему перенесено з Анонси релізів до форуму Фільми в HD


RoMeL

toloka_alex_2013 
Новенький


З нами з: 06.12.13
Востаннє: 27.01.21
Повідомлень: 24

2020-11-30 10:30  
Почавши переглядати подумав що щось не те скачав так як діалоги були російською але коли далі пішла українська то стало зрозуміло, що то так переклали діалоги, які в оригіналі були, здається, німецькою. От якби ще аналогічний підхід використали у середині фільму то ціни б не було!
efaskif 
Новенький


З нами з: 30.11.17
Востаннє: 27.01.21
Повідомлень: 2

2021-01-13 16:13  
Ребят! Кто-то может стать на раздачу?
antik_2008 
Релізер і модератор відео


З нами з: 20.10.08
Востаннє: 27.01.21
Повідомлень: 4658

2021-01-13 16:16  
efaskif написано:
Ребят! Кто-то может стать на раздачу?

Цитата:
Всім без винятку заборонено:
2.1 Спілкуватися іншою мовою, аніж літературною українською; використовувати для написання українських слів іншу абетку, аніж кирилицю


Загальні правила користування Торрент-Толокою

Ваш часовий пояс: GMT + 2 Години

Нова тема   Відповісти