Всі жінки відьми (Сезон 3) / Charmed (Season 3) (1080p), HDTV (1080p) Ukr 2000-2001

Нові коментарі

Нова тема   Відповісти
Автор Повідомлення
Oxysims 
Новенький


З нами з: 07.11.16
Востаннє: 08.03.21
Повідомлень: 15

2020-11-24 00:02  
Всі жінки відьми (Сезон 3) / Charmed (Season 3) (1080p), HDTV (1080p) Ukr 2000-2001

Всі жінки відьми (Сезон 3) / Charmed (Season 3) (1080p), HDTV (1080p) Ukr 2000-2001


Жанр: фентезі, мелодрама, комедія
Країна: США



Кінокомпанія: Spelling Television
Режисер: James L. Conway, John Blush
Актори: Холлі Марі Комбс, Алісса Мілано, Роуз МакГоун, Доріан Грегорі, Шеннен Догерті, Джуліан МакМаєн

Сюжет:
Основна дія сезону закручується навколо боротьби Чародійок з могутнім демоном — Балтазором. Фібі знайомиться і починає зустрічатися з Коулом Тернером. В результаті виявляється, що він і є Балтазор, але, закохавшись у Фібі, він не може її вбити, а тому зраджує та знищує Тріаду. Джерело Зла посилає мисливця за демонами-втікачами, щоб убити Балтазора, і він об'єднує свої зусилля із Чародійками. Щоб урятувати Коула від власних сестер, Фібі фальсифікує його смерть. Незабаром совість Фібі бере гору над почуттями до Коула, і вона розповідає сестрам про те, що насправді не вбила Коула. Сестри сильно засмучені, але незабаром вони прощають її і навіть знову довіряють Коулові. Він багато раз рятує їхні життя, і за це Пайпер дозволяє йому бути присутнім на своєму весіллі з Лео.


Тривалість: 1 серія: 42:00 (цілком серій: 22)
Перелік серій
01.The Honeymoon's Over
02.Magic Hour
03.Once Upon a Time
04.All Halliwell's Eve
05.Sight Unseen
06.Primrose Empath
07.Power Outage
08.Sleuthing with the Enemy
09.Coyote Piper
10.We All Scream for Ice Cream
11.Blinded by the Whitelighter
12.Wrestling with Demons
13.Bride and Gloom
14.The Good, the Bad and the Cursed
15.Just Harried
16.Death Takes a Halliwell
17.Pre-Witched
18.Sin Francisco
19.The Demon Who Came in from the Cold
20.Exit Strategy
21.Look Who's Barking
22.All Hell Breaks Loose
Якість:
Відео:
розмір кадру: 1920 х 1080
бітрейт: 7212 кб/с

Аудіо:
мова: українська
переклад: багатоголосий закадровий
кодек: 2.0
бітрейт: 192 кб/с

Джерело озвучення:
Info
General
Complete name : Charmed\Season 3\Charmed.S03E01.The Honeymoon's Over.mp4
Format : MPEG-4
Format profile : Base Media / Version 2
Codec ID : mp42 (mp42/mp41)
File size : 2.17 GiB
Duration : 41 min 13 s
Overall bit rate mode : Variable
Overall bit rate : 7 538 kb/s
Encoded date : UTC 2020-11-23 10:05:43
Tagged date : UTC 2020-11-23 10:07:25
TIM : 00:00:00:00
TSC : 25
TSZ : 1

Video
ID : 1
Format : HEVC
Format/Info : High Efficiency Video Coding
Format profile : [email protected]@Main
Codec ID : hvc1
Codec ID/Info : High Efficiency Video Coding
Duration : 41 min 13 s
Bit rate : 7 212 kb/s
Width : 1 920 pixels
Height : 1 080 pixels
Display aspect ratio : 16:9
Frame rate mode : Constant
Frame rate : 25.000 FPS
Color space : YUV
Chroma subsampling : 4:2:0
Bit depth : 8 bits
Bits/(Pixel*Frame) : 0.139
Stream size : 2.08 GiB (96%)
Language : English
Encoded date : UTC 2020-11-23 10:05:43
Tagged date : UTC 2020-11-23 10:05:43

Audio
ID : 2
Format :
Format/Info : Advanced Audio Codec
Format profile : LC
Codec ID : mp4a-40-2
Duration : 41 min 13 s
Source duration : 41 min 13 s
Bit rate mode : Variable
Bit rate : 317 kb/s
Maximum bit rate : 383 kb/s
Channel(s) : 2 channels
Channel positions : Front: L R
Sampling rate : 48.0 kHz
Frame rate : 46.875 FPS (1024 SPF)
Compression mode : Lossy
Stream size : 93.6 MiB (4%)
Source stream size : 93.6 MiB (4%)
Encoded date : UTC 2020-11-23 10:05:43
Tagged date : UTC 2020-11-23 10:05:43
Скріншоти




Особиста оцінка: 9 - давно не бачив настільки якісне кіно


 Трекер:    Зареєстрований   

Завантажити / скачати серіал українською



відео для новачків



 Зареєстрований:   2020-11-24 00:02
 Розмір:   47.95 GB 
 Оцінка серіалу:   9.7/10 (Голосів: 3)
   
vigilante 
Новенький


З нами з: 05.02.13
Востаннє: 03.03.21
Повідомлень: 20

2020-11-24 15:39  
не закривайте цей реліз від Oxysims як попередній,
доки ніхто краще не зробив в 1080p,то нехай хоч це буде

Oxysims 
Новенький


З нами з: 07.11.16
Востаннє: 08.03.21
Повідомлень: 15

2020-11-24 15:56  
Дякую) Я зараз 4-й сезон роблю. Сподіваюсь ввечері зробити реліз. І там теж буде лише українська аудіо доріжка.

Додано через 11 хвилин 46 секунд:

Серії на оригінальній мові можна знайти на сайті rarbg2020.

McNiL 
Частий відвідувач


З нами з: 01.02.13
Востаннє: 08.03.21
Повідомлень: 38

2021-02-06 19:25  
Дуже прошу замiнити 11 та 14 серiю. Неможливо нормально дивитися.
Зображення сильно сiпаеться.
Якщо треба то я маю оригiнальну 11 та 14 серiю (2.3GB, 1080p, , 7800 кб/с)
з нормальним / плавним вiдеорядом

Ваш часовий пояс: GMT + 2 Години

Нова тема   Відповісти