Зоряний шлях II: Гнів Хана / Star Trek II: The Wrath of Khan (1982) 1080p Ukr/Eng

Нові коментарі

Нова тема   Відповісти
Автор Повідомлення
Цікава ідея 
VIP


З нами з: 25.12.11
Востаннє: 16.01.21
Повідомлень: 755

2020-11-23 20:38  
AVC | 1080p

Зоряний шлях II: Гнів Хана / Star Trek II: The Wrath of Khan (1982) 1080p Ukr/Eng


Зоряний шлях II: Гнів Хана / Star Trek II: The Wrath of Khan (1982) 1080p Ukr/Eng


Якщо вам сподобалося озвучення фільму,
то ви можете підтримати нас за посиланням
ТИЦЬ


Жанр: фантастика, пригодницький
Країна: США



Кінокомпанія / телеканал: Paramount Pictures, Century Associates, Robert Wise Productions
Режисери: Ніколас Мейер
Актори: Вільям Шетнер, Леонард Німой, ДеФорест Келлі, Джеймс Дуена, Уолтер Кеніг, Джордж Такей, Нішелль Ніколс, Бібі Беш, Меррітт Бутрік та інші

Сюжет:
Це другий повнометражний науково-фантастичний фільм, дія якого відбувається у всесвіті Star Trek.
Час дії - 2286 рік. Хан Нуньєн Сінгх - генетично вдосконалена надлюдина - давній ворог команди зорельота "USS Enterprise". Колись, в якості покарання, він і його поплічники були залишені капітаном Кірком на одній з незаселених планет. Але через 15 років з часу тих подій Хан звільняється з ув'язнення і жадає помсти. Його головний ворог - Джеймс Т. Кірк. І саме Кірку і його екіпажу необхідно вдруге перемогти старого ворога, а попутно дізнатися про таємні експерименти Федерації щодо трансформації планет.


Перекладено та озвучено ТО "Цікава Ідея" на замовлення NemoInFire


Тривалість: 01:53:01

Якість: 1080p
Відео:
кодек:
розмір кадру: 1920 x 804
бітрейт: 10.2 Mb/s

Аудіо # 1:
мова: українська | "Цікава Ідея"
переклад: професійний багатоголосий закадровий
кодек: 5.1
бітрейт: 448 кб/с

Аудіо # 2:
мова: англійська
переклад: оригінал
кодек: TrueHD 8.0
бітрейт: ~ 5 000 кб/с
Info
Код:
Format                                   :
Format version                           : Version 4
File size                                : 12.3 GiB
Duration                                 : 1 h 56 min
Overall bit rate mode                    : Variable
Overall bit rate                         : 15.1 Mb/s
Movie name                               : Зоряний шлях: Гнів Хана / Star Trek II: The Wrath of Khan (1982) 1080p [Ukr.Eng] [Цікава Ідея]
Encoded date                             : UTC 2020-11-22 16:50:43
Writing application                      : v50.0.0 ('Awakenings') 64-bit
Writing library                          : libebml v1.4.0 + v1.6.2
Cover                                    : Yes
Attachments                              : cover.jpg

Video
ID                                       : 1
Format                                   : AVC
Format/Info                              : Advanced Video Codec
Format profile                           : [email protected]
Format settings                          : CABAC / 5 Ref Frames
Format settings, CABAC                   : Yes
Format settings, Reference frames        : 5 frames
Codec ID                                 : V_MPEG4/ISO/AVC
Duration                                 : 1 h 56 min
Bit rate                                 : 10.2 Mb/s
Width                                    : 1 920 pixels
Height                                   : 804 pixels
Display aspect ratio                     : 2.40:1
Frame rate mode                          : Constant
Frame rate                               : 23.976 (24000/1001) FPS
Color space                              : YUV
Chroma subsampling                       : 4:2:0
Bit depth                                : 8 bits
Scan type                                : Progressive
Bits/(Pixel*Frame)                       : 0.276
Stream size                              : 8.31 GiB (68%)
Writing library                          : core 160 r3000 33f9e14
Encoding settings                        : cabac=1 / ref=5 / deblock=1:-3:-3 / analyse=0x3:0x133 / me=umh / subme=10 / psy=1 / psy_rd=1.00:0.00 / mixed_ref=1 / me_range=24 / chroma_me=1 / trellis=2 / 8x8dct=1 / cqm=0 / deadzone=21,11 / fast_pskip=0 / chroma_qp_offset=-2 / threads=18 / lookahead_threads=3 / sliced_threads=0 / nr=0 / decimate=0 / interlaced=0 / bluray_compat=0 / constrained_intra=0 / bframes=8 / b_pyramid=2 / b_adapt=2 / b_bias=0 / direct=3 / weightb=1 / open_gop=0 / weightp=2 / keyint=250 / keyint_min=23 / scenecut=40 / intra_refresh=0 / rc=crf / mbtree=0 / crf=17.0 / qcomp=0.60 / qpmin=0 / qpmax=69 / qpstep=4 / ip_ratio=1.40 / pb_ratio=1.30 / aq=3:0.60
Language                                 : English
Default                                  : Yes
Forced                                   : No

Audio #1
ID                                       : 2
Format                                   : AC-3
Format/Info                              : Audio Coding 3
Commercial name                          : Dolby Digital
Codec ID                                 : A_AC3
Duration                                 : 1 h 56 min
Bit rate mode                            : Constant
Bit rate                                 : 448 kb/s
Channel(s)                               : 6 channels
Channel layout                           : L R C LFE Ls Rs
Sampling rate                            : 48.0 kHz
Frame rate                               : 31.250 FPS (1536 SPF)
Compression mode                         : Lossy
Stream size                              : 373 MiB (3%)
Title                                    : Цікава Ідея
Language                                 : Ukrainian
Service kind                             : Complete Main
Default                                  : Yes
Forced                                   : Yes

Audio #2
ID                                       : 3
Format                                   : MLP FBA
Format/Info                              : Meridian Lossless Packing FBA
Commercial name                          : Dolby TrueHD
Codec ID                                 : A_TRUEHD
Duration                                 : 1 h 56 min
Bit rate mode                            : Variable
Bit rate                                 : 4 351 kb/s
Maximum bit rate                         : 5 466 kb/s
Channel(s)                               : 8 channels
Channel layout                           : L R C LFE Ls Rs Lb Rb
Sampling rate                            : 48.0 kHz
Frame rate                               : 1 200.000 FPS (40 SPF)
Compression mode                         : Lossless
Stream size                              : 3.54 GiB (29%)
Title                                    : Original
Language                                 : English
Default                                  : No
Forced                                   : No
Скріншоти



Перекладено та озвучено творчим об'єднанням:


Авторський реліз (завантажувати можна без реєстрації)
 Трекер:    Зареєстрований   

Завантажити / скачати фільм українською



відео для новачків



 Зареєстрований:   2020-11-23 20:38
 Розмір:   12.28 GB 
 Оцінка фільму:   10/10 (Голосів: 9)
   
-Star-Lord- 
VIP


З нами з: 09.08.18
Востаннє: 16.01.21
Повідомлень: 2283

2021-01-12 02:07  
General Franko-Safon 
Поважний учасник


З нами з: 03.07.20
Востаннє: 16.01.21
Повідомлень: 190

2021-01-12 02:23  
У вісімдесяті хтось знімав "Термінатора", хтось "Чужих", "Хижака", "Іншопланетянина" чи "Зоряні війни". А хтось оцю телевиставу.
Ваш часовий пояс: GMT + 2 Години

Нова тема   Відповісти