Година сови / Il giorno della civetta (1968) 720p Ukr/Ita | sub Eng/Fre/Por

Нові коментарі

Нова тема   Відповісти
Автор Повідомлення
Anonymous 







2020-11-23 00:52  
Година сови / Il giorno della civetta (1968) 720p Ukr/Ita | sub Eng/Fre/Por

Оригінальний постер
Година сови / Il giorno della civetta (1968) 720p Ukr/Ita | sub Eng/Fre/Por
DVD


Жанр: кримінальний, драма, детектив
Країна: Італія, Франція



Кінокомпанія: Panda Societa per L'Industria Cinematografica, Les Films Corona, Corona Cinematografica
Режисер: Даміано Даміані
Актори: Клаудія Кардінале, Франко Неро, Лі Джей Кобб, Гайтано Чімароза, Нема Персофф, Еніо Бальбо, Уго Д'Алесіо, Фред Коплан, Джованні Палавічіно, Серж Реджані та ін.

Сюжет:
Перший фільм з трилогії про мафію італійського режисера Даміано Даміані.
Щоб розслідувати вбивство в маленькому сицилійському містечку новий шеф поліції вимушений боротися з корумпованими чиновниками, мовчанням свідків, та місцевим босом мафії.


Тривалість: 01:48:54
Якість: [французький Blu-ray]
Відео:
кодек:
розмір кадру: 1280 х 694
бітрейт: 6996 Mб/с

Аудіо # 1:
мова: українська
переклад: двоголосий закадровий | компанія КІТ
кодек: 2.0
бітрейт: 192 кб/с

Аудіо # 2:
мова: італійська
переклад: оригінал
кодек: 2.0
бітрейт: 640 кб/с

Джерело озвучення:


Субтитри:
мова: французька, англійська, португальська
тип: програмні (м'які)
формат: *.srt
Info
Код:
General
Unique ID                                : 41863705917614056899439821342908942792 (0x1F7EA80F231FCE1BC12699D751E509C8)
Complete name                            : Il giorno della civetta (1968) 720p [Ukr_Ita] [Hurtom].
Format                                   :
Format version                           : Version 4
File size                                : 5.96 GiB
Duration                                 : 1 h 48 min
Overall bit rate                         : 7 831 kb/s
Movie name                               : Година сови (1968)
Encoded date                             : UTC 2020-11-22 00:34:21
Writing application                      : v50.0.0 ('Awakenings') 64-bit
Writing library                          : libebml v1.4.0 + v1.6.2
Cover                                    : Yes
Attachments                              : cover.jpg

Video
ID                                       : 1
Format                                   : AVC
Format/Info                              : Advanced Video Codec
Format profile                           : [email protected]
Format settings                          : CABAC / 9 Ref Frames
Format settings, CABAC                   : Yes
Format settings, Reference frames        : 9 frames
Codec ID                                 : V_MPEG4/ISO/AVC
Duration                                 : 1 h 48 min
Bit rate                                 : 6 996 kb/s
Width                                    : 1 280 pixels
Height                                   : 694 pixels
Display aspect ratio                     : 1.85:1
Frame rate mode                          : Constant
Frame rate                               : 24.000 FPS
Color space                              : YUV
Chroma subsampling                       : 4:2:0
Bit depth                                : 8 bits
Scan type                                : Progressive
Bits/(Pixel*Frame)                       : 0.328
Stream size                              : 5.32 GiB (89%)
Writing library                          : core 157 r2969 d4099dd
Encoding settings                        : cabac=1 / ref=9 / deblock=1:-3:-3 / analyse=0x3:0x133 / me=umh / subme=10 / psy=1 / psy_rd=1.00:0.15 / mixed_ref=1 / me_range=24 / chroma_me=1 / trellis=2 / 8x8dct=1 / cqm=0 / deadzone=21,11 / fast_pskip=1 / chroma_qp_offset=-3 / threads=8 / lookahead_threads=1 / sliced_threads=0 / nr=0 / decimate=1 / interlaced=0 / bluray_compat=0 / constrained_intra=0 / bframes=9 / b_pyramid=2 / b_adapt=2 / b_bias=0 / direct=3 / weightb=1 / open_gop=0 / weightp=2 / keyint=240 / keyint_min=24 / scenecut=40 / intra_refresh=0 / rc_lookahead=60 / rc=crf / mbtree=1 / crf=23.0 / qcomp=0.60 / qpmin=0 / qpmax=69 / qpstep=4 / vbv_maxrate=25000 / vbv_bufsize=31250 / crf_max=0.0 / nal_hrd=none / filler=0 / ip_ratio=1.40 / aq=1:1.00
Default                                  : Yes
Forced                                   : No

Audio #1
ID                                       : 2
Format                                   : AC-3
Format/Info                              : Audio Coding 3
Commercial name                          : Dolby Digital
Codec ID                                 : A_AC3
Duration                                 : 1 h 48 min
Bit rate mode                            : Constant
Bit rate                                 : 192 kb/s
Channel(s)                               : 2 channels
Channel layout                           : L R
Sampling rate                            : 48.0 kHz
Frame rate                               : 31.250 FPS (1536 SPF)
Compression mode                         : Lossy
Stream size                              : 150 MiB (2%)
Language                                 : Ukrainian
Service kind                             : Complete Main
Default                                  : Yes
Forced                                   : Yes

Audio #2
ID                                       : 3
Format                                   : AC-3
Format/Info                              : Audio Coding 3
Commercial name                          : Dolby Digital
Codec ID                                 : A_AC3
Duration                                 : 1 h 48 min
Bit rate mode                            : Constant
Bit rate                                 : 640 kb/s
Channel(s)                               : 2 channels
Channel layout                           : L R
Sampling rate                            : 48.0 kHz
Frame rate                               : 31.250 FPS (1536 SPF)
Compression mode                         : Lossy
Stream size                              : 499 MiB (8%)
Language                                 : Italian
Service kind                             : Complete Main
Default                                  : No
Forced                                   : No

Text #1
ID                                       : 4
Format                                   : UTF-8
Codec ID                                 : S_TEXT/UTF8
Codec ID/Info                            : UTF-8 Plain Text
Duration                                 : 1 h 48 min
Bit rate                                 : 69 b/s
Count of elements                        : 1621
Stream size                              : 55.2 KiB (0%)
Language                                 : Portuguese
Default                                  : No
Forced                                   : No

Text #2
ID                                       : 5
Format                                   : UTF-8
Codec ID                                 : S_TEXT/UTF8
Codec ID/Info                            : UTF-8 Plain Text
Duration                                 : 1 h 47 min
Bit rate                                 : 69 b/s
Count of elements                        : 1163
Stream size                              : 54.9 KiB (0%)
Language                                 : English
Default                                  : No
Forced                                   : No

Text #3
ID                                       : 6
Format                                   : UTF-8
Codec ID                                 : S_TEXT/UTF8
Codec ID/Info                            : UTF-8 Plain Text
Duration                                 : 1 h 48 min
Bit rate                                 : 65 b/s
Count of elements                        : 1631
Stream size                              : 52.0 KiB (0%)
Language                                 : French
Default                                  : No
Forced                                   : No

Скріншоти




Джерело:


Срібний реліз (на рейтинг впливає 50% завантаженого)
 Трекер:    Зареєстрований   

Завантажити / скачати фільм українською



відео для новачків



 Зареєстрований:   2020-11-23 00:52
 Розмір:   5.96 GB 
 Оцінка фільму:   10/10 (Голосів: 2)
   
Інші релізи
Ваш часовий пояс: GMT + 2 Години

Нова тема   Відповісти