Всі жінки відьми (Сезон 3) / Charmed (Season 3) (1080p), HDTV (1080p) Ukr 2000-2001

Нові коментарі

Нова тема   Відповісти
немає
Автор Повідомлення
Oxysims 
Новенький


З нами з: 07.11.16
Востаннє: 26.11.20
Повідомлень: 12

2020-11-22 19:11  
Всі жінки відьми (Сезон 3) / Charmed (Season 3) (1080p), HDTV (1080p) Ukr 2000-2001

Всі жінки відьми (Сезон 3) / Charmed (Season 3) (1080p), HDTV (1080p) Ukr 2000-2001


Жанр: фентезі, мелодрама, комедія
Країна: США



Кінокомпанія: Spelling Television
Режисер: James L. Conway, John Blush
Актори: Холлі Марі Комбс, Алісса Мілано, Роуз МакГоун, Доріан Грегорі, Шеннен Догерті, Джуліан МакМаєн

Сюжет:
Основна дія сезону закручується навколо боротьби Чародійок з могутнім демоном — Балтазором. Фібі знайомиться і починає зустрічатися з Коулом Тернером. В результаті виявляється, що він і є Балтазор, але, закохавшись у Фібі, він не може її вбити, а тому зраджує та знищує Тріаду. Джерело Зла посилає мисливця за демонами-втікачами, щоб убити Балтазора, і він об'єднує свої зусилля із Чародійками. Щоб урятувати Коула від власних сестер, Фібі фальсифікує його смерть. Незабаром совість Фібі бере гору над почуттями до Коула, і вона розповідає сестрам про те, що насправді не вбила Коула. Сестри сильно засмучені, але незабаром вони прощають її і навіть знову довіряють Коулові. Він багато раз рятує їхні життя, і за це Пайпер дозволяє йому бути присутнім на своєму весіллі з Лео.


Тривалість: 1 серія: 42:00 (цілком серій: 22)
Перелік серій
01.The Honeymoon's Over
02.Magic Hour
03.Once Upon a Time
04.All Halliwell's Eve
05.Sight Unseen
06.Primrose Empath
07.Power Outage
08.Sleuthing with the Enemy
09.Coyote Piper
10.We All Scream for Ice Cream
11.Blinded by the Whitelighter
12.Wrestling with Demons
13.Bride and Gloom
14.The Good, the Bad and the Cursed
15.Just Harried
16.Death Takes a Halliwell
17.Pre-Witched
18.Sin Francisco
19.The Demon Who Came in from the Cold
20.Exit Strategy
21.Look Who's Barking
22.All Hell Breaks Loose
Якість:
Відео:
кодек:
розмір кадру: 1920 х 1080
бітрейт: 20.5 мб/с

Аудіо:
мова: українська
переклад: багатоголосий закадровий
кодек: 2.0
бітрейт: 317 кб/с

Джерело озвучення:
Info
General
Complete name : Charmed\Season 3\Charmed.S03E01.The Honeymoon's Over.mp4
Format : MPEG-4
Format profile : Base Media / Version 2
Codec ID : mp42 (mp42/mp41)
File size : 5.69 GiB
Duration : 41 min 13 s
Overall bit rate mode : Variable
Overall bit rate : 19.8 Mb/s
Encoded date : UTC 2020-11-17 14:08:02
Tagged date : UTC 2020-11-17 14:11:00
TIM : 00:00:00:00
TSC : 25
TSZ : 1

Video
ID : 1
Format : AVC
Format/Info : Advanced Video Codec
Format profile : [email protected]
Format settings : CABAC / 1 Ref Frames
Format settings, CABAC : Yes
Format settings, ReFrames : 1 frame
Format settings, GOP : M=1, N=30
Codec ID : avc1
Codec ID/Info : Advanced Video Coding
Duration : 41 min 13 s
Bit rate : 19.4 Mb/s
Width : 1 920 pixels
Height : 1 080 pixels
Display aspect ratio : 16:9
Frame rate mode : Constant
Frame rate : 25.000 FPS
Color space : YUV
Chroma subsampling : 4:2:0
Bit depth : 8 bits
Scan type : Progressive
Bits/(Pixel*Frame) : 0.375
Stream size : 5.60 GiB (98%)
Language : English
Encoded date : UTC 2020-11-17 14:08:02
Tagged date : UTC 2020-11-17 14:08:02

Audio
ID : 2
Format :
Format/Info : Advanced Audio Codec
Format profile : LC
Codec ID : mp4a-40-2
Duration : 41 min 13 s
Source duration : 41 min 13 s
Bit rate mode : Variable
Bit rate : 317 kb/s
Maximum bit rate : 406 kb/s
Channel(s) : 2 channels
Channel positions : Front: L R
Sampling rate : 48.0 kHz
Frame rate : 46.875 FPS (1024 SPF)
Compression mode : Lossy
Stream size : 93.6 MiB (2%)
Source stream size : 93.6 MiB (2%)
Encoded date : UTC 2020-11-17 14:08:02
Tagged date : UTC 2020-11-17 14:08:02
Скріншоти






Джерело:
Особиста оцінка: 9 - давно не бачив настільки якісне кіно
Deiv 
Поважний учасник


З нами з: 15.07.16
Востаннє: 23.11.20
Повідомлень: 186

2020-11-23 00:18  
Нічого собі розмір як для HD ): Відео ви самі кодували, чи взяли десь з інтернета ? Кругом сезон (1080p) 50гб з копійками . Дякую за реліз , та за пророблену роботу , та реліз величенький. І ще, відсутня мова оригіналу .
Oxysims 
Новенький


З нами з: 07.11.16
Востаннє: 26.11.20
Повідомлень: 12

2020-11-23 01:04  
Я ж казала, що робила це сама для себе. Так відео я кодувала сама. Я взагалі не маю досвіду в цьому, як змогла так і зробила.
leicheman 
Відео Гуртом - фільмокрай
Відео Гуртом - фільмокрай


З нами з: 03.07.14
Востаннє: 26.11.20
Повідомлень: 5688

2020-11-23 10:27  
Oxysims написано:
Так відео я кодувала сама

Для чого? У вас тепер серії важать більше за оригінали + з'явилися полоси по всім бокам. Треба було тільки звук синхронізувати, а відеоряд не чіпати.
Oxysims 
Новенький


З нами з: 07.11.16
Востаннє: 26.11.20
Повідомлень: 12

2020-11-23 10:37  
1. Для себе.
2. З приводу полос по всім бокам не згодна. Не бачу їх
3. А яку программу ви мені для цього порадите?
4. Якщо хтось зробить краще буду рада, я не претендую на звання синхронізатор року. Всі сезони давно можно знайти в інтернеті і зробити краще ніж я.
leicheman 
Відео Гуртом - фільмокрай
Відео Гуртом - фільмокрай


З нами з: 03.07.14
Востаннє: 26.11.20
Повідомлень: 5688

2020-11-23 10:48  
Oxysims написано:
Для себе

Ріпи роблять коли хочуть зробити менший розмір при мінімальній витраті якості. Ви для чогось зкодували з більшим бітрейтом і невідомими налаштуваннями. Моя вам порада візьміть знову цей відеоряд (я так розумію він мабуть з кінозалу?) і просто додайте до нього зведенні доріжки з цього вашого релізу. Так він буде у два рази менший за розміром і більше сідерів потенційних з'явиться бо 100гб релізу не кожен захоче тримати Happy

Oxysims написано:
З приводу полос по всім бокам не згодна. Не бучу їх

Тоді мабуть ви якось не правильно зробили скріншоти (подивіться під спойлер у вас там усюди по боках полоси сірі)

Oxysims написано:
А яку программу ви мені для цього порадите?

На толоці більшість бере окремо англійську доріжки і українську та зводять у Sony Vegas, а відеоряд не чіпають.

Oxysims написано:
Якщо хтось зробить краще буду рада, я не претендую на звання синхронізатор року. Всі сезони давно можно знайти в інтернеті і зробити краще ніж я.

Та все добре, ви молодець, але просто не треба було кодувати відеоряд.
А і ще одне, ви мабуть звук брали вже зі старих релізів двд тут? Краще спитайте у темі "Запис з ТБ" там здається хтось писав свіжі записи з НЛО -ТБ і там має бути кращий звук.
Oxysims 
Новенький


З нами з: 07.11.16
Востаннє: 26.11.20
Повідомлень: 12

2020-11-23 11:26  
Дякую за поради. Доречі всі сезони можна знайти на сайті rarbg2020. Якщо хтось шукає.
vigilante 
Новенький


З нами з: 05.02.13
Востаннє: 26.11.20
Повідомлень: 19

2020-11-23 21:03  
доки ніхто краще не зробив в 1080p,то нехай хоч це буде
Ваш часовий пояс: GMT + 2 Години

Нова тема   Відповісти