Леді Баг та Супер Кіт у Нью-Йорку. Ліга героїв (спеціальний епізод) / Miraculous World New York. United Heroez (2020) 1080p Ukr/Eng

Нові коментарі

Нова тема   Відповісти
Автор Повідомлення
Цікава ідея 
VIP


З нами з: 25.12.11
Востаннє: 03.12.20
Повідомлень: 729

2020-11-22 18:04  
AVC | 1080p

Леді Баг та Супер Кіт у Нью-Йорку. Ліга героїв (спеціальний епізод) / Miraculous World New York. United Heroez (2020) 1080p Ukr/Eng


Леді Баг та Супер Кіт у Нью-Йорку. Ліга героїв (спеціальний епізод) / Miraculous World New York. United Heroez (2020) 1080p Ukr/Eng


Якщо вам сподобалося озвучення мультфільму,
то ви можете підтримати нас за посиланням
ТИЦЬ


Жанр: анімація, дитячий, пригодницький, комедія, сімейний
Країна: США



Кінокомпанія / телеканал: A Zagtoon and Method Animation
Режисери: Thomas Astruc
Актори: Cristina Valenzuela, Bryce Papenbrook, Mela Lee ect

Сюжет:
На тиждень французько-американської дружби Марінет та її клас їдуть до Нью-Йорку, міста супергероїв! Прекрасна можливість провести час Марінет зі своїми друзями, особливо Адрієном. Насправді він подорожує зі своїм батьком, котрий особливо зацікавлений в унікальній виставці дорогоцінного намиста, що належить Орлиному Кігтю ... коштовності, які дають сили, яких бажає Яструб Молі. Леді Баг та Кіт Нуар незабаром повинні зв'язатись з американськими героями, щоб захистити їх від ворога!


Перекладено та озвучено ТО "Цікава Ідея"


Тривалість: 01:02:58

Якість: 1080p
Відео:
кодек:
розмір кадру: 1920 x 1080
бітрейт: 5 265 кб/с

Аудіо # 1:
мова: українська | "Цікава Ідея"
переклад: професійний багатоголосий закадровий
кодек: 5.1
бітрейт: 448 кб/с

Аудіо # 2:
мова: англійська
переклад: оригінал
кодек: 5.1
бітрейт: 256 кб/с
Info
Код:
Format                                   :
Format version                           : Version 4
File size                                : 2.63 GiB
Duration                                 : 1 h 2 min
Overall bit rate                         : 5 970 kb/s
Movie name                               : Леді Баг та Супер Кіт у Нью-Йорку. Ліга героїв (спеціальний епізод) / Miraculous World New York. United Heroez (2020) 1080p Ukr/Eng [Цікава Ідея]
Encoded date                             : UTC 2020-11-22 15:50:31
Writing application                      : v50.0.0 ('Awakenings') 64-bit
Writing library                          : libebml v1.4.0 + v1.6.2

Video
ID                                       : 1
Format                                   : AVC
Format/Info                              : Advanced Video Codec
Format profile                           : [email protected]
Format settings                          : CABAC / 4 Ref Frames
Format settings, CABAC                   : Yes
Format settings, Reference frames        : 4 frames
Codec ID                                 : V_MPEG4/ISO/AVC
Duration                                 : 1 h 2 min
Bit rate                                 : 5 265 kb/s
Width                                    : 1 920 pixels
Height                                   : 1 080 pixels
Display aspect ratio                     : 16:9
Frame rate mode                          : Constant
Frame rate                               : 23.976 (24000/1001) FPS
Color space                              : YUV
Chroma subsampling                       : 4:2:0
Bit depth                                : 8 bits
Scan type                                : Progressive
Bits/(Pixel*Frame)                       : 0.106
Stream size                              : 2.32 GiB (88%)
Default                                  : Yes
Forced                                   : No

Audio #1
ID                                       : 2
Format                                   : AC-3
Format/Info                              : Audio Coding 3
Commercial name                          : Dolby Digital
Codec ID                                 : A_AC3
Duration                                 : 1 h 2 min
Bit rate mode                            : Constant
Bit rate                                 : 448 kb/s
Channel(s)                               : 6 channels
Channel layout                           : L R C LFE Ls Rs
Sampling rate                            : 48.0 kHz
Frame rate                               : 31.250 FPS (1536 SPF)
Compression mode                         : Lossy
Stream size                              : 202 MiB (8%)
Title                                    : Цікава Ідея
Language                                 : Ukrainian
Service kind                             : Complete Main
Default                                  : Yes
Forced                                   : Yes

Audio #2
ID                                       : 3
Format                                   : E-AC-3
Format/Info                              : Enhanced AC-3
Commercial name                          : Dolby Digital Plus
Codec ID                                 : A_EAC3
Duration                                 : 1 h 2 min
Bit rate mode                            : Constant
Bit rate                                 : 256 kb/s
Channel(s)                               : 6 channels
Channel layout                           : L R C LFE Ls Rs
Sampling rate                            : 48.0 kHz
Frame rate                               : 31.250 FPS (1536 SPF)
Compression mode                         : Lossy
Stream size                              : 115 MiB (4%)
Title                                    : Original
Language                                 : English
Service kind                             : Complete Main
Default                                  : No
Forced                                   : No
Скріншоти



Перекладено та озвучено творчим об'єднанням:


Авторський реліз (завантажувати можна без реєстрації)
 Трекер:    Зареєстрований   

Завантажити / скачати мультфільм українською



відео для новачків



 Зареєстрований:   2020-11-22 18:05
 Розмір:   2.63 GB 
 Оцінка мультфільму:   9.7/10 (Голосів: 7)
   
ПБВ2309 
Свій


З нами з: 29.11.16
Востаннє: 02.12.20
Повідомлень: 67

2020-11-23 17:54  
Nick777v 
Поважний учасник


З нами з: 24.12.13
Востаннє: 03.12.20
Повідомлень: 236

2020-11-25 18:16  
ПЛЮСПЛЮС також підготував святковий сюрприз для своїх глядачів. 31 грудня, у четвер, о 18:45 телеканал покаже прем’єру спеціального годинного випуску "Світ Леді Баг: Нью-Йорк – об’єднані герої"
Ваш часовий пояс: GMT + 2 Години

Нова тема   Відповісти