Хранитель палацу / Sha hai zhu long / Guardian of the Palace (2020) 1080p Chi | sub Ukr

Нові коментарі

Нова тема   Відповісти
Автор Повідомлення
killer2015 
Поважний учасник


З нами з: 30.01.15
Востаннє: 02.12.20
Повідомлень: 200

2020-11-22 15:34  
Хранитель палацу / Sha hai zhu long / Guardian of the Palace (2020) 1080p Chi | sub Ukr

Хранитель палацу / Sha hai zhu long / Guardian of the Palace (2020) 1080p Chi | sub Ukr


Жанр: Бойовик, фентезі
Країна: Китай



Кінокомпанія: Beijing Culture
Режисер: Юйхан Вей
Актори: Юйси Пен, Ду І-Хен, Семмі Хун, Хе Іжун, Лу Цівей, Чень Імін, Чан Жао, Юньфен-Нянь, юебіни Чжан, Зікі-Хан, Сяомань Ню, Гуан Чжан

Сюжет:
Тисячу років тому країна хейшуй процвітала і її вулиці були вимощені золотом. Але за одну ніч все змінилося. Багаторічна битва з пустелею була програна і країну хейшуй поглинув пісок. Через тисячу років в невеликому містечку неподалік почалася епідемія чуми. У книгах сказано, що тільки місячний камінь з палацу стародавньої країни хейшуй здатний зупинити хворобу. Відважні герої відправляються на пошуки місячного каменю.


Тривалість: 01:30:11
Якість: 1080p
Відео:
кодек:
розмір кадру: 1920x816
бітрейт: 5 500 кб/с

Аудіо:
мова: китайська
переклад: оригінал
кодек: 2.0
бітрейт: 256 кб/с

Субтитри:
мова: українська
(власний переклад з російської)
тип: програмні (м'які)
формат: *.srt
МІ
General
Unique ID : 295726227664360772084703030720795857922 (0xDE7ACCBA724A0FE77575E3046A895402)
Complete name : G:\Фільми\Guardian.of.the.Palace.2020.CHINESE.1080p.WEBRip_uk\Guardian.of.the.Palace.2020.CHINESE.1080p.WEBRip_uk.
Format :
Format version : Version 4
File size : 3.59 GiB
Duration : 1 h 30 min
Overall bit rate : 5 692 kb/s
Encoded date : UTC 2020-11-22 13:00:04
Writing application : v47.0.0 ('Black Flag') 64-bit
Writing library : libebml v1.3.10 + v1.5.2

Video
ID : 1
Format : AVC
Format/Info : Advanced Video Codec
Format profile : [email protected]
Format settings : CABAC / 4 Ref Frames
Format settings, CABAC : Yes
Format settings, Reference frames : 4 frames
Codec ID : V_MPEG4/ISO/AVC
Duration : 1 h 30 min
Bit rate : 5 500 kb/s
Width : 1 920 pixels
Height : 816 pixels
Display aspect ratio : 2.35:1
Frame rate mode : Constant
Frame rate : 24.000 FPS
Color space : YUV
Chroma subsampling : 4:2:0
Bit depth : 8 bits
Scan type : Progressive
Bits/(Pixel*Frame) : 0.146
Stream size : 3.42 GiB (95%)
Writing library : core 148 r2795M aaa9aa8
Encoding settings : cabac=1 / ref=4 / deblock=1:0:0 / analyse=0x3:0x113 / me=umh / subme=9 / psy=1 / psy_rd=1.00:0.00 / mixed_ref=1 / me_range=16 / chroma_me=1 / trellis=2 / 8x8dct=1 / cqm=0 / deadzone=21,11 / fast_pskip=1 / chroma_qp_offset=-2 / threads=25 / lookahead_threads=2 / sliced_threads=0 / nr=0 / decimate=1 / interlaced=0 / bluray_compat=0 / constrained_intra=0 / bframes=3 / b_pyramid=2 / b_adapt=2 / b_bias=0 / direct=3 / weightb=1 / open_gop=0 / weightp=2 / keyint=250 / keyint_min=24 / scenecut=40 / intra_refresh=0 / rc_lookahead=50 / rc=abr / mbtree=1 / bitrate=5500 / ratetol=1.0 / qcomp=0.60 / qpmin=0 / qpmax=69 / qpstep=4 / ip_ratio=1.40 / aq=1:1.00
Language : Chinese
Default : Yes
Forced : No

Audio
ID : 2
Format : AC-3
Format/Info : Audio Coding 3
Commercial name : Dolby Digital
Codec ID : A_AC3
Duration : 1 h 30 min
Bit rate mode : Constant
Bit rate : 256 kb/s
Channel(s) : 2 channels
Channel layout : L R
Sampling rate : 48.0 kHz
Frame rate : 31.250 FPS (1536 SPF)
Compression mode : Lossy
Stream size : 165 MiB (4%)
Language : Chinese
Service kind : Complete Main
Default : No
Forced : No
Скріншоти







Джерело:
Особиста оцінка: 8 - мені сподобалося


 Трекер:    Зареєстрований   

Завантажити / скачати фільм українською



відео для новачків



 Зареєстрований:   2020-11-22 15:34
 Розмір:   3.59 GB 
 Оцінка фільму:   9.5/10 (Голосів: 4)
   
killer2015 
Поважний учасник


З нами з: 30.01.15
Востаннє: 02.12.20
Повідомлень: 200

2020-11-22 15:37  

staf777 
Відео Гуртом - підтримка та поширення
Відео Гуртом - підтримка та поширення


З нами з: 16.11.16
Востаннє: 03.12.20
Повідомлень: 4582

2020-11-22 15:47  
Постер бомба
подивився трейлер - наче непогане кіно - шкода що нема озвучення

killer2015 
Поважний учасник


З нами з: 30.01.15
Востаннє: 02.12.20
Повідомлень: 200

2020-11-22 18:43  
staf777

Погоджуюсь з вами. Там і одноголосного перекладу хватить з головою, діалогів не багато. Колись придбаю мікрофон, поборю страх критики, та й озвучу сам))) А доти тільки саби...

Ваш часовий пояс: GMT + 2 Години

Нова тема   Відповісти