Чемпіонат Англії 2020/21 | Тоттенгем - Манчестер Сіті | 9 тур | Setanta Sports (21.11.2020) 720p

Нові коментарі

Нова тема   Відповісти
Автор Повідомлення
misamisk 
Свій


З нами з: 16.10.17
Востаннє: 02.12.20
Повідомлень: 58

2020-11-22 13:17  
Чемпіонат Англії 2020/21 | Тоттенгем - Манчестер Сіті | 9 тур | Setanta Sports (21.11.2020) 720p

Чемпіонат Англії 2020/21 | Тоттенгем - Манчестер Сіті | 9 тур | Setanta Sports (21.11.2020) 720p


Телеканал: Setanta Sports Ukraine
Опис:
Матч 9 туру Англійської Прем'єр-Ліги сезону 2020/21 відбувся 21 листопада 2020 року в Лондоні на "Тоттенгем Готспур Стедіум".

Матч обслуговували:
Рефері: Майк Дін
Асистенти рефері: Дареен Канн, Деніел Робатан
Четвертий арбітр: Енді Медлі
VAR: Кевін Френд
Асистент VAR: Адріан Холмс

Коментатор: Дмитро Джулай


Тривалість: 01:47:40
Якість:
Відео:
кодек:
розмір кадру: 1280 x 720
бітрейт: 5000 кб/с

Аудіо:
мова: українська
кодек: 2.0
бітрейт: 320 кб/с
Info
General
Unique ID : 269041636314526145421294002751258287356 (0xCA6788CC3E56A1CCFE6F89CD8DD0DCFC)
Complete name : EPL.Matchday9.Tottenham.Hotspur-Manchester.City.21.11.2020..720p.
Format :
Format version : Version 4
File size : 4.00 GiB
Duration : 1 h 47 min
Overall bit rate mode : Variable
Overall bit rate : 5 323 kb/s
Movie name : English Premier League. Matchday 9. Tottenham Hotspur - Manchester City
Encoded date : UTC 2020-11-22 10:05:27
Writing application : v24.0.0 ('Beyond The Pale') 64-bit
Writing library : libebml v1.3.6 + v1.4.9

Video
ID : 1
Format : AVC
Format/Info : Advanced Video Codec
Format profile : [email protected]
Format settings : CABAC / 2 Ref Frames
Format settings, CABAC : Yes
Format settings, Reference frames : 2 frames
Format settings, GOP : M=1, N=25
Codec ID : V_MPEG4/ISO/AVC
Duration : 1 h 47 min
Bit rate mode : Variable
Bit rate : 5 000 kb/s
Maximum bit rate : 768 kb/s
Width : 1 280 pixels
Height : 720 pixels
Display aspect ratio : 16:9
Frame rate mode : Constant
Frame rate : 29.970 (30000/1001) FPS
Original frame rate : 25.000 FPS
Color space : YUV
Chroma subsampling : 4:2:0
Bit depth : 8 bits
Scan type : Progressive
Bits/(Pixel*Frame) : 0.181
Stream size : 3.76 GiB (94%)
Title : English Premier League. Matchday 9. Tottenham Hotspur - Manchester City
Language : English
Default : Yes
Forced : No

Audio
ID : 2
Format : LC
Format/Info : Advanced Audio Codec Low Complexity
Codec ID : A_AAC-2
Duration : 1 h 47 min
Bit rate : 320 kb/s
Channel(s) : 2 channels
Channel layout : L R
Sampling rate : 44.1 kHz
Frame rate : 43.066 FPS (1024 SPF)
Compression mode : Lossy
Stream size : 247 MiB (6%)
Title : Commentaries by Dmytro Dzhulay
Language : Ukrainian
Default : Yes
Forced : No
Стартові склади
Скріншоти
Особиста оцінка: 9 - давно не бачив настільки хороший матч


Золотий реліз (завантажене не впливає на рейтинг)
 Трекер:    Зареєстрований   

Завантажити / скачати торрент



відео для новачків



 Зареєстрований:   2020-11-22 13:17
 Розмір:   4 GB 
 Оцінка:   9.7/10 (Голосів: 3)
   
misamisk 
Свій


З нами з: 16.10.17
Востаннє: 02.12.20
Повідомлень: 58

2020-11-22 13:25  
Мої враження від матчу
В цілому, матч вийшов непоганий, але дивитися на постійні атаки "Сіті" під кінець стало трішки нудно. Але оборона "шпор" витримала цей натиск. Шкода, правда, що єдиний забитий "містянами" м'яч було скасовано через мінімальну гру рукою Габріеля Жезуса, хтозна, як би тоді склався другий тайм. Чемпіонська гонка в цьому сезоні обіцяє бути напрочуд цікавою

staf777 
Відео Гуртом - підтримка та поширення
Відео Гуртом - підтримка та поширення


З нами з: 16.11.16
Востаннє: 02.12.20
Повідомлень: 4572

2020-11-22 13:35  
Цитата:
Особиста оцінка: 9 - давно не бачив настільки якісне кіно
може все ж такі матч Happy
Дякую - Лігу чемпіонів теж плануєте викладати ?

misamisk 
Свій


З нами з: 16.10.17
Востаннє: 02.12.20
Повідомлень: 58

2020-11-22 14:31  
staf777
Цитата:
може все ж такі матч


Це треба тривожити пана Konfucius, щоб він у реліз-візарді до розділу "Спорт" переправив "кіно" на щось інше, що більше підходить до конкретного розділу

Лігу Чемпіонів викладати не планував через те, що, по перше, в мене ввечері зазвичай графік забитий, на матчі не встигаю, а по друге, з каналів, що транслюють єврокубки, в мене є доступ тільки до каналу Футбол 3, на якому матчі українських команд, на жаль, не показують.

Ваш часовий пояс: GMT + 2 Години

Нова тема   Відповісти