Смерть на похороні / Death at a Funeral (2007) AVC Ukr/Eng | sub Eng

Нові коментарі

Нова тема   Відповісти
Автор Повідомлення
Arsenfpu 
Відео Гуртом - фільмокрай
Відео Гуртом - фільмокрай


З нами з: 30.04.09
Востаннє: 02.12.20
Повідомлень: 7481

2020-11-22 11:13  
Смерть на похороні / Death at a Funeral (2007) AVC Ukr/Eng | sub Eng

Смерть на похороні / Death at a Funeral (2007) AVC Ukr/Eng | sub Eng


Жанр: комедія
Країна: Німеччина, США, Велика Британія, Нідерланди



Кінокомпанія: Sidney Kimmel Entertainment, Parabolic Pictures Inc., Stable Way Entertainment
Режисер: Френк Оз
Актори: Метью Макфейден, Кілі Хоуз, Енді Найман, Юен Бремнер, Дейзі Донован, Алан Тьюдік, Джейн Ешер, Кріс Маршалл, Руперт Грейвз, Пітер Воен, Пітер Дінклейдж

Сюжет:
Манірна англійська сім'я возз'єднується, щоб невтішно оплакати свого покійного родича. Щиро жаліючи про смерть володаря кристальної, на їх думку, душі, члени благородного сімейства виявляються вельми збентежені, дізнавшися про прижиттєві витівки свого дядечка. Шантажист, що повідав всі ці забавні історії, зовсім не має наміру тримати язика за зубами. Він згоден посприяти збереженню репутації аристократів хіба що за невелику, за його словами, суму з великою кількістю нулів.


Тривалість: 01:30:37
Якість:
Відео:
кодек:
розмір кадру: 1200x672
бітрейт: 2810 кб/с

Аудіо # 1:
мова: українська
переклад: багатоголосий закадровий
кодек: 2.0
бітрейт: 192 кб/с

Аудіо # 2:
мова: англійська
переклад: оригінал
кодек: 2.0
бітрейт: 192 кб/с

Субтитри:
мова: англійська
тип: програмні (м'які)
формат: *.srt
Скріншоти














Про файл
General
Unique ID : 188459763850882179583305905009681985995 (0x8DC807BE8BDBA9BE18835842EDB771CB)
Complete name : D:\Death at a Funeral (2007) [Ukr,Eng] AVC [Hurtom].
Format :
Format version : Version 4
File size : 1.95 GiB
Duration : 1 h 30 min
Overall bit rate : 3 076 kb/s
Movie name : Смерть на похороні / Death at a Funeral (2007)
Encoded date : UTC 2020-11-22 22:27:08
Writing application : v21.0.0 ('Tardigrades Will Inherit The Earth') 32-bit
Writing library : libebml v1.3.5 + v1.4.8
Cover : Yes
Attachments : cover.jpg

Video
ID : 1
Format : AVC
Format/Info : Advanced Video Codec
Format profile : [email protected]
Format settings : CABAC / 9 Ref Frames
Format settings, CABAC : Yes
Format settings, Reference : 9 frames
Codec ID : V_MPEG4/ISO/AVC
Duration : 1 h 30 min
Bit rate : 2 810 kb/s
Width : 1 200 pixels
Height : 672 pixels
Display aspect ratio : 16:9
Frame rate mode : Constant
Frame rate : 23.976 FPS
Color space : YUV
Chroma subsampling : 4:2:0
Bit depth : 8 bits
Scan type : Progressive
Bits/(Pixel*Frame) : 0.145
Stream size : 1.70 GiB (87%)
Writing library : core 92 r1523 25ca5b0
Encoding settings : cabac=1 / ref=9 / deblock=1:-3:-2 / analyse=0x3:0x133 / me=umh / subme=9 / psy=1 / psy_rd=1.00:0.15 / mixed_ref=1 / me_range=32 / chroma_me=1 / trellis=2 / 8x8dct=1 / cqm=0 / deadzone=21,11 / fast_pskip=0 / chroma_qp_offset=-3 / threads=6 / sliced_threads=0 / nr=0 / decimate=1 / interlaced=0 / constrained_intra=0 / bframes=7 / b_pyramid=2 / b_adapt=2 / b_bias=0 / direct=3 / wpredb=1 / wpredp=2 / keyint=250 / keyint_min=25 / scenecut=40 / intra_refresh=0 / rc_lookahead=110 / rc=2pass / mbtree=1 / bitrate=2810 / ratetol=1.0 / qcomp=0.68 / qpmin=10 / qpmax=51 / qpstep=4 / cplxblur=20.0 / qblur=0.5 / ip_ratio=1.40 / aq=2:0.90
Language : English
Default : No
Forced : No

Audio #1
ID : 2
Format : AC-3
Format/Info : Audio Coding 3
Commercial name : Dolby Digital
Codec ID : A_AC3
Duration : 1 h 30 min
Bit rate mode : Constant
Bit rate : 192 kb/s
Channel(s) : 2 channels
Channel layout : L R
Sampling rate : 48.0 kHz
Frame rate : 31.250 FPS (1536 SPF)
Compression mode : Lossy
Stream size : 124 MiB (6%)
Title : ТЕТ
Language : Ukrainian
Service kind : Complete Main
Default : Yes
Forced : Yes

Audio #2
ID : 3
Format : AC-3
Format/Info : Audio Coding 3
Commercial name : Dolby Digital
Codec ID : A_AC3
Duration : 1 h 30 min
Bit rate mode : Constant
Bit rate : 192 kb/s
Channel(s) : 2 channels
Channel layout : L R
Sampling rate : 48.0 kHz
Frame rate : 31.250 FPS (1536 SPF)
Compression mode : Lossy
Stream size : 124 MiB (6%)
Language : English
Service kind : Complete Main
Default : No
Forced : No

Text
ID : 4
Format : UTF-8
Codec ID : S_TEXT/UTF8
Codec ID/Info : UTF-8 Plain Text
Duration : 1 h 21 min
Bit rate : 67 b/s
Count of elements : 1509
Stream size : 40.5 KiB (0%)
Language : English
Default : No
Forced : No

Menu
00:00:00.000 : :Chapter 1
00:06:13.623 : :Chapter 2
00:10:01.474 : :Chapter 3
00:15:15.873 : :Chapter 4
00:21:43.593 : :Chapter 5
00:28:35.045 : :Chapter 6
00:35:59.282 : :Chapter 7
00:45:28.350 : :Chapter 8
00:53:48.224 : :Chapter 9
01:01:39.070 : :Chapter 10
01:08:24.683 : :Chapter 11
01:14:35.220 : :Chapter 12
01:23:24.832 : :Chapter 13
01:25:12.774 : :Chapter 14
Джерело:
За запис з ТБ дякую пану Bohdan237
Особиста оцінка: не дивився


 Трекер:    Зареєстрований   

Завантажити / скачати фільм українською



відео для новачків



 Зареєстрований:   2020-11-23 00:30
 Розмір:   1.95 GB 
 Оцінка фільму:   9.5/10 (Голосів: 14)
   
bot 
робот


З нами з: 30.09.07
Востаннє: 26.05.05
Повідомлень: 26428

2020-11-23 00:30  
Тему перенесено з Анонси релізів до форуму Фільми


Arsenfpu

sables 
Оцифрування книг Гуртом
Оцифрування книг Гуртом


З нами з: 27.08.14
Востаннє: 29.11.20
Повідомлень: 58

2020-11-29 07:59  
Неймовірно смішний фільм. Давно його чекав. Дякую!
Ваш часовий пояс: GMT + 2 Години

Нова тема   Відповісти