Jinjer - Alive In Melbourne (2020) [] | Prog Metal

Нові коментарі

Нова тема   Цю тему закрито
Останній раз роздавалося karmicbeast (2021-01-25)
Автор Повідомлення
kolpavel 
VIP


З нами з: 04.05.14
Востаннє: 25.01.21
Повідомлень: 1366

2020-11-22 10:49  
Jinjer - Alive In Melbourne (2020) [] | Prog Metal

Jinjer - Alive In Melbourne (2020) [] | Prog Metal


Стиль: Prog Metal
Країна, місто: Україна, Горлівка
Сайти: Офіційний сайт
Видавець: Napalm Records Handels GmbH
Виконавці:
Тетяна Шмайлюк - вокал
Роман Ібрамхалілов - гітара
Євген Абдюханов - бас-гітара
Влад Уласевич - ударні
Пісні:
    01. Intro - 04:00
    02. Teacher, Teacher! - 05:57
    03. Sit Stay Roll Over -04:39
    04. Ape - 03:28
    05. Judgement (& Punishment) - 04:37
    06. I Speak Astronomy - 05:56
    07. Who Is Gonna Be The One - 05:42
    08. Noah - 04:32
    09. Retrospection - 04:30
    10. Perennial - 04:40
    11. On The Top - 05:44
    12. Pit Of Consciousness - 04:35
    13. Home Back - 04:27
    14. Words Of Wisdom - 04:00
    15. Pisces - 05:00
    16. Captain Clock - 04:45
    17. Outro (Live) - 01:38

Тривалість: 01:19:03
Мова: англійська
Аудіо-кодек:
Бітрейт: 1487 - 1737 кб/с
Джерело: трекер
Додаткова інформація:
Лог якості
foobar2000 1.6.1 / Замер динамического диапазона (DR) 1.1.1
Дата отчёта: 2020-11-21 05:44:57

--------------------------------------------------------------------------------
Анализ: JINJER / Alive in Melbourne (Live)
--------------------------------------------------------------------------------

DR Пики RMS Продолжительность трека
--------------------------------------------------------------------------------
DR11 -0.11 дБ -14.19 дБ 4:00 01-Intro
DR5 -0.11 дБ -6.37 дБ 5:57 02-Teacher, Teacher!
DR5 -0.11 дБ -6.04 дБ 4:38 03-Sit Stay Roll Over
DR5 -0.11 дБ -6.14 дБ 3:28 04-Ape
DR5 -0.11 дБ -6.43 дБ 4:36 05-Judgement (& Punishment)
DR5 -0.11 дБ -6.09 дБ 5:55 06-I Speak Astronomy
DR5 -0.11 дБ -6.24 дБ 5:42 07-Who is Gonna Be the One
DR5 -0.11 дБ -5.99 дБ 4:32 08-Noah
DR5 -0.11 дБ -6.38 дБ 4:30 09-Retrospection
DR5 -0.11 дБ -6.58 дБ 4:39 10-Perennial
DR5 -0.11 дБ -6.33 дБ 5:44 11-On the Top
DR5 -0.11 дБ -6.33 дБ 4:34 12-Pit of Consciousness
DR5 -0.11 дБ -6.10 дБ 4:26 13-Home Back
DR5 -0.11 дБ -6.96 дБ 4:59 14-Words of Wisdom
DR5 -0.11 дБ -6.47 дБ 5:09 15-Pisces
DR5 -0.11 дБ -6.05 дБ 4:44 16-Captain Clock
DR9 -0.11 дБ -11.43 дБ 1:37 17-Outro
--------------------------------------------------------------------------------

Количество треков: 17
Реальные значения DR: DR6

Частота: 44100 Гц
Каналов: 2
Разрядность: 24
Битрейт: 1585 кбит/с
Кодек:
================================================================================


Якщо Ви справді бажаєте підтримати українське - після прослуховування, якщо музика вам сподобалась, придбайте ліцензійний диск. Підтримаймо вітчизняних виконавців!


Срібний реліз (на рейтинг впливає 50% завантаженого)
 Трекер:    Зареєстрований   

Завантажити / скачати українську музику



відео для новачків



 Зареєстрований:   2020-12-17 15:02
 Розмір:   974 MB 
 Оцінка музики:   5/10 (Голосів: 9)
   
kolpavel 
VIP


З нами з: 04.05.14
Востаннє: 25.01.21
Повідомлень: 1366

2020-11-22 10:51  
JINJER - Alive In Melbourne - Official Full Concert | Napalm Records.


kolpavel 
VIP


З нами з: 04.05.14
Востаннє: 25.01.21
Повідомлень: 1366

2020-12-17 15:05  
17 грудня замінив на Hi-Res stereo
Helen101 
Новенький


З нами з: 17.12.20
Востаннє: 18.12.20
Повідомлень: 2

2020-12-17 21:12  
Я перепрошую, а що тут роблять релізи відвертих колаборантів? Адміністрацію нічого не дивує?
Vasylisk 
Новенький


З нами з: 20.02.12
Востаннє: 25.01.21
Повідомлень: 8

2020-12-18 13:23  
сєпарам тут не місце, на мою скромну думку
sirkon10 
Свій


З нами з: 13.05.12
Востаннє: 25.01.21
Повідомлень: 62

2020-12-19 02:36  
Нехай для кацапів співають, видаліть їх звідси!
p.s. Хто стане на захист, нагадаю, що в них концерти на ерефії в вересні 2021 року заплановані.

kolpavel 
VIP


З нами з: 04.05.14
Востаннє: 25.01.21
Повідомлень: 1366

2020-12-19 09:58  
Ось дивлюся я на горлодерів, які завжди вимагають чогось на Толоці. "Прибрати! Закрити! Це не те! І ці не ті!". І спостерігаю одну закономірність. У цих персонажів в графі кількість релізів майже завжди - 0. Рейтинг теж близький до цього числа. Ну ось вимог на 1000!

Хлопці, не всі як ви звикли сидіти на сраці. Спробуйте самі щось зробити!

sirkon10 
Свій


З нами з: 13.05.12
Востаннє: 25.01.21
Повідомлень: 62

2020-12-19 13:40  
Вам не подобається критика? Чи десь написано неправду?
kolpavel 
VIP


З нами з: 04.05.14
Востаннє: 25.01.21
Повідомлень: 1366

2020-12-19 15:24  
sirkon10

Ви до всього мабуть ще й насилу читаєте. Про критику таких як ви і моїм ставленням до неї сказано під моїм постом.

Неправду написано, це поперше. Неправду написано дурнями, це подруге! Неправду написано нічого не не вартими лобурями! І перше, і третє, і особливо друге мені неприємно. Але як казали у давнину. Собака гавка, а караван іде!

А хто куди, і коли збирається, зокрема в росію, яке вам до цього діло?! Я навіть не збираюся в росiю, я в ній живу! Що далі?! Я сепаратист, я ворог України?! Я дупи вам потворам за ці слова в мій адресс розiрву, бидло немите! Об вас на Україні кацапи і жиди відкрито ноги витирають, а тут на форумі "сміливі" зауваження робите!

Ваш часовий пояс: GMT + 2 Години

Нова тема   Цю тему закрито