Смерть на похороні / Death at a Funeral (2010) ВDRip-AVC Ukr/Eng | sub Ukr/Eng

Нові коментарі

Нова тема   Відповісти
Автор Повідомлення
Arsenfpu 
Відео Гуртом - фільмокрай
Відео Гуртом - фільмокрай


З нами з: 30.04.09
Востаннє: 27.01.21
Повідомлень: 7759

2020-11-22 00:30  
Смерть на похороні / Death at a Funeral (2010) ВDRip-AVC Ukr/Eng | sub Ukr/Eng

Смерть на похороні / Death at a Funeral (2010) ВDRip-AVC Ukr/Eng | sub Ukr/Eng


Жанр: комедія
Країна: США



Кінокомпанія: Screen Gems, Sidney Kimmel Entertainment, Wonderful Films
Режисер: Ніл ЛаБут
Актори: Кріс Рок, Мартін Лоуренс, Трейсі Морґан, Коламбус Шорт, Пітер Дінклейдж, Рон Ґласс, Реджина Голл, Джеймс Мерсден, Люк Вілсон

Сюжет:
Похорон патріарха сімейства призводить до серії сімейних скандалів, скелети вивалюються з шаф і виникає підозра, що справа не обійшлася без вбивства...


Тривалість: 01:32:18
Якість:
Відео:
кодек:
розмір кадру: 1 024 х 432
бітрейт: 2 399 кб/с

Аудіо # 1:
мова: українська
переклад: багатоголосий закадровий
кодек: 2.0
бітрейт: 192 кб/с

Аудіо # 2:
мова: англійська
переклад: оригінал
кодек: 2.0
бітрейт: 192 кб/с

Субтитри:
мова: українська
тип: програмні (м'які)
формат: *.srt

Субтитри:
мова: англійська
тип: програмні (м'які)
формат: *.srt
Скріншоти














Про файл
General
Unique ID : 214760075892171673573501362245327634139 (0xA191493DFA6546C0EF409F3DE0FFBEDB)
Complete name : D:\Death at a Funeral (2010) [Ukr,Eng] AVC [Hurtom].
Format :
Format version : Version 4
File size : 1.81 GiB
Duration : 1 h 32 min
Overall bit rate : 2 803 kb/s
Movie name : Смерть на похороні / Death at a Funeral (2010)
Encoded date : UTC 2020-11-24 18:40:47
Writing application : v21.0.0 ('Tardigrades Will Inherit The Earth') 32-bit
Writing library : libebml v1.3.5 + v1.4.8
Cover : Yes
Attachments : cover.jpg

Video
ID : 1
Format : AVC
Format/Info : Advanced Video Codec
Format profile : [email protected]
Format settings : CABAC / 8 Ref Frames
Format settings, CABAC : Yes
Format settings, Reference : 8 frames
Codec ID : V_MPEG4/ISO/AVC
Duration : 1 h 32 min
Bit rate : 2 399 kb/s
Width : 1 024 pixels
Height : 432 pixels
Display aspect ratio : 2.40:1
Frame rate mode : Constant
Frame rate : 23.976 (24000/1001) FPS
Color space : YUV
Chroma subsampling : 4:2:0
Bit depth : 8 bits
Scan type : Progressive
Bits/(Pixel*Frame) : 0.226
Stream size : 1.55 GiB (86%)
Writing library : core 157 r2969 d4099dd
Encoding settings : cabac=1 / ref=8 / deblock=1:-1:-1 / analyse=0x3:0x133 / me=umh / subme=10 / psy=1 / psy_rd=1.00:0.15 / mixed_ref=1 / me_range=32 / chroma_me=1 / trellis=2 / 8x8dct=1 / cqm=0 / deadzone=21,11 / fast_pskip=0 / chroma_qp_offset=-3 / threads=13 / lookahead_threads=1 / sliced_threads=0 / nr=0 / decimate=1 / interlaced=0 / bluray_compat=0 / constrained_intra=0 / bframes=3 / b_pyramid=2 / b_adapt=2 / b_bias=0 / direct=3 / weightb=1 / open_gop=0 / weightp=2 / keyint=240 / keyint_min=23 / scenecut=40 / intra_refresh=0 / rc_lookahead=60 / rc=2pass / mbtree=1 / bitrate=2399 / ratetol=1.0 / qcomp=0.60 / qpmin=0 / qpmax=69 / qpstep=4 / cplxblur=20.0 / qblur=0.5 / vbv_maxrate=31250 / vbv_bufsize=31250 / nal_hrd=none / filler=0 / ip_ratio=1.40 / aq=1:1.00
Default : Yes
Forced : No

Audio #1
ID : 2
Format : AC-3
Format/Info : Audio Coding 3
Commercial name : Dolby Digital
Codec ID : A_AC3
Duration : 1 h 32 min
Bit rate mode : Constant
Bit rate : 192 kb/s
Channel(s) : 2 channels
Channel layout : L R
Sampling rate : 48.0 kHz
Frame rate : 31.250 FPS (1536 SPF)
Compression mode : Lossy
Stream size : 127 MiB (7%)
Title : ICTV
Language : Ukrainian
Service kind : Complete Main
Default : Yes
Forced : Yes

Audio #2
ID : 3
Format : AC-3
Format/Info : Audio Coding 3
Commercial name : Dolby Digital
Codec ID : A_AC3
Duration : 1 h 32 min
Bit rate mode : Constant
Bit rate : 192 kb/s
Channel(s) : 2 channels
Channel layout : L R
Sampling rate : 48.0 kHz
Frame rate : 31.250 FPS (1536 SPF)
Compression mode : Lossy
Stream size : 127 MiB (7%)
Language : English
Service kind : Complete Main
Default : No
Forced : No

Text #1
ID : 4
Format : UTF-8
Codec ID : S_TEXT/UTF8
Codec ID/Info : UTF-8 Plain Text
Duration : 1 h 28 min
Bit rate : 122 b/s
Count of elements : 1359
Stream size : 78.8 KiB (0%)
Language : Ukrainian
Default : Yes
Forced : No

Text #2
ID : 5
Format : PGS
Muxing mode : zlib
Codec ID : S_HDMV/PGS
Codec ID/Info : Picture based subtitle format used on BDs/HD-DVDs
Duration : 1 h 25 min
Bit rate : 67.4 kb/s
Count of elements : 3307
Stream size : 41.2 MiB (2%)
Language : English
Default : No
Forced : No
Джерело:
За українську доріжку дякую п. slavik_v_z, Sando7, POMEO, patriot2305
Особиста оцінка: не дивився


 Трекер:    Зареєстрований   

Завантажити / скачати фільм українською



відео для новачків



 Зареєстрований:   2020-11-24 20:43
 Розмір:   1.81 GB 
 Оцінка фільму:   8.8/10 (Голосів: 12)
   
Інші релізи
MutuLI 
Відео Гуртом - фільмокрай
Відео Гуртом - фільмокрай


З нами з: 08.03.09
Востаннє: 27.01.21
Повідомлень: 2066

2020-11-22 12:43  
bot 
робот


З нами з: 30.09.07
Востаннє: 26.05.05
Повідомлень: 26984

2020-11-24 20:42  
Тему перенесено з Анонси релізів до форуму Фільми


Arsenfpu

don pedro 
Попереджень: 1
Попереджень: 1 


З нами з: 29.06.11
Востаннє: 27.01.21
Повідомлень: 18649

2020-11-25 01:04  
Шикарний фільм. Особливо люблю тут роль Пітера Дінклейджа.
PatataFrita 
Свій


З нами з: 05.04.20
Востаннє: 19.01.21
Повідомлень: 94

2020-11-25 11:28  
Гарний фільм
killer2015 
VIP


З нами з: 30.01.15
Востаннє: 27.01.21
Повідомлень: 315

2020-11-25 11:32  
І сміх і гріх) ДЯкую! Я так розумію це ремейк фільму Death at a Funeral (2007) року режисера Френка Оза.
Ваш часовий пояс: GMT + 2 Години

Нова тема   Відповісти