Гавань / Haven (2004) AVC 2xUkr/Eng

Нові коментарі

Нова тема   Відповісти
Автор Повідомлення
Arsenfpu 
Відео Гуртом - фільмокрай
Відео Гуртом - фільмокрай


З нами з: 30.04.09
Востаннє: 25.11.20
Повідомлень: 7449

2020-11-22 00:20  
Гавань / Haven (2004) AVC 2xUkr/Eng

Гавань / Haven (2004) AVC 2xUkr/Eng


Жанр: драма, кримінальний
Країна: США, Великобританія, Німеччина, Іспанія



Кінокомпанія: l Camino Pictures, Bob Yari Productions, Whatever Pictures
Режисер: Френк І. Флаверс
Актори: Орландо Блум, Білл Пакстон, Стівен Діллейн, Агнес Брукнер, Зої Салдана та інші

Сюжет:
Картина поєднує дві сюжетні лінії, причому не завжди у хронологічному порядку. Одна з них – втеча бізнесмена (Пакстон) на Кайманові острови, де він розраховує сховатись від податківців. Друга – роман між хлопцем на ім’я Шай (Блум) і дочкою темношкірого авторитета, який не закінчується нічим хорошим... Типовий кримінал з екзотичним антуражем і нехитрою мораллю починається непогано, але загалом не піднімається вище пересічного рівня і доводить, що самого Блума замало для повноцінного хіта.


Тривалість: 01:38:48
Якість:
Відео:
кодек:
розмір кадру: 1 024 х 560
бітрейт: 2 399 кб/с

Аудіо # 1:
мова: українська
переклад: багатоголосий закадровий
кодек: 2.0
бітрейт: 192 кб/с

Аудіо # 2:
мова: українська
переклад: багатоголосий закадровий
кодек: 2.0
бітрейт: 192 кб/с

Аудіо # 3:
мова: англійська
переклад: оригінал
кодек: 2.0
бітрейт: 192 кб/с
Скріншоти














Про файл
General
Unique ID : 339659166816961961465049242370621803987 (0xFF87F9DCD4599B46228B6EC8FD138DD3)
Complete name : D:\Haven (2004) [2xUkr,Eng] AVC [Hurtom].
Format :
Format version : Version 4
File size : 2.05 GiB
Duration : 1 h 38 min
Overall bit rate : 2 976 kb/s
Movie name : Гавань / Haven (2004)
Encoded date : UTC 2020-11-21 21:48:35
Writing application : v21.0.0 ('Tardigrades Will Inherit The Earth') 32-bit
Writing library : libebml v1.3.5 + v1.4.8
Cover : Yes
Attachments : cover.jpg

Video
ID : 1
Format : AVC
Format/Info : Advanced Video Codec
Format profile : [email protected]
Format settings : CABAC / 8 Ref Frames
Format settings, CABAC : Yes
Format settings, Reference : 8 frames
Codec ID : V_MPEG4/ISO/AVC
Duration : 1 h 38 min
Bit rate : 2 399 kb/s
Width : 1 024 pixels
Height : 560 pixels
Display aspect ratio : 1.85:1
Frame rate mode : Constant
Frame rate : 23.976 (24000/1001) FPS
Color space : YUV
Chroma subsampling : 4:2:0
Bit depth : 8 bits
Scan type : Progressive
Bits/(Pixel*Frame) : 0.174
Stream size : 1.66 GiB (81%)
Writing library : core 157 r2969 d4099dd
Encoding settings : cabac=1 / ref=8 / deblock=1:-1:-1 / analyse=0x3:0x133 / me=umh / subme=10 / psy=1 / psy_rd=1.00:0.15 / mixed_ref=1 / me_range=32 / chroma_me=1 / trellis=2 / 8x8dct=1 / cqm=0 / deadzone=21,11 / fast_pskip=0 / chroma_qp_offset=-3 / threads=17 / lookahead_threads=1 / sliced_threads=0 / nr=0 / decimate=1 / interlaced=0 / bluray_compat=0 / constrained_intra=0 / bframes=3 / b_pyramid=2 / b_adapt=2 / b_bias=0 / direct=3 / weightb=1 / open_gop=0 / weightp=2 / keyint=240 / keyint_min=23 / scenecut=40 / intra_refresh=0 / rc_lookahead=60 / rc=2pass / mbtree=1 / bitrate=2399 / ratetol=1.0 / qcomp=0.60 / qpmin=0 / qpmax=69 / qpstep=4 / cplxblur=20.0 / qblur=0.5 / vbv_maxrate=31250 / vbv_bufsize=31250 / nal_hrd=none / filler=0 / ip_ratio=1.40 / aq=1:1.00
Default : Yes
Forced : No

Audio #1
ID : 2
Format : AC-3
Format/Info : Audio Coding 3
Commercial name : Dolby Digital
Codec ID : A_AC3
Duration : 1 h 38 min
Bit rate mode : Constant
Bit rate : 192 kb/s
Channel(s) : 2 channels
Channel layout : L R
Sampling rate : 48.0 kHz
Frame rate : 31.250 FPS (1536 SPF)
Compression mode : Lossy
Stream size : 135 MiB (6%)
Title : amc
Language : Ukrainian
Service kind : Complete Main
Default : Yes
Forced : Yes

Audio #2
ID : 3
Format : AC-3
Format/Info : Audio Coding 3
Commercial name : Dolby Digital
Codec ID : A_AC3
Duration : 1 h 38 min
Bit rate mode : Constant
Bit rate : 192 kb/s
Channel(s) : 2 channels
Channel layout : L R
Sampling rate : 48.0 kHz
Frame rate : 31.250 FPS (1536 SPF)
Compression mode : Lossy
Stream size : 135 MiB (6%)
Title : К1
Language : Ukrainian
Service kind : Complete Main
Default : No
Forced : No

Audio #3
ID : 4
Format : AC-3
Format/Info : Audio Coding 3
Commercial name : Dolby Digital
Codec ID : A_AC3
Duration : 1 h 38 min
Bit rate mode : Constant
Bit rate : 192 kb/s
Channel(s) : 2 channels
Channel layout : L R
Sampling rate : 48.0 kHz
Frame rate : 31.250 FPS (1536 SPF)
Compression mode : Lossy
Stream size : 136 MiB (6%)
Language : English
Service kind : Complete Main
Default : No
Forced : No
Джерело:
За запис з amc дякую пану Sando7
За доріжку від К1 дякую п. Gingеrbread, xslim
За постер дякую пану realnitro
Особиста оцінка: не дивився


Срібний реліз (на рейтинг впливає 50% завантаженого)
 Трекер:    Зареєстрований   

Завантажити / скачати фільм українською



відео для новачків



 Зареєстрований:   2020-11-22 00:20
 Розмір:   2.05 GB 
 Оцінка фільму:   6.3/10 (Голосів: 8)
   
Інші релізи
   Гавань / Haven (2004) 720p Ukr/Eng | Sub Eng drop_plz  1 / 0   5.88 GB   2020-08-22 08:10 
   Гавань / Haven (2004) Anonymous  0 / 0   1.28 GB   2009-05-27 22:11 
Ваш часовий пояс: GMT + 2 Години

Нова тема   Відповісти