Гренландія / Greenland (2020) UHD Remux 4K 2160p HDR H.265 Ukr/Eng | Sub Eng

Нові коментарі

Нова тема   Відповісти
Автор Повідомлення
RoMeL 
Відео Гуртом - підтримка та поширення
Відео Гуртом - підтримка та поширення


З нами з: 09.07.08
Востаннє: 19.01.21
Повідомлень: 319

2020-11-21 17:27  
Гренландія / Greenland (2020) UHD Remux 4K 2160p HDR H.265 Ukr/Eng | Sub Eng



Жанр: бойовик, драма, трилер, фантастика
Країна: США, Велика Британія



Кінокомпанія: Thunder Road Pictures, Riverstone Pictures
Режисер: Рік Роман Во / Ric Roman Waugh
Актори: Джерард Батлер / Gerard Butler, Морена Баккарін / Morena Baccarin, Роджер Дейл Флойд / Roger Dale Floyd, Скот Ґленн / Scott Glenn, Рендал Гонзалез / Randal Gonzalez, Рік Паскуалоне / Rick Pasqualone, Ніколя Ламбо / Nicola Lambo та інші.

Сюжет:
Уламки гігантської комети мчать до Землі і загрожують знищити планету. Кінець світу здається неминучим. Єдине безпечне місце — бункер у далекій Гренландії. Джон, його дружина та син вирушають у небезпечну подорож. На їхньому шляху до порятунку — не лише руйнівні уламки комети, але й паніка людей, які збожеволіли від жаху. Під час глобальної катастрофи людські закони вже не діють і кожен — сам за себе…


Тривалість: 01:59:33
Якість: Remux 4K 2160p HDR H.265
Відео:
кодек: H.265 (HEVC)
розмір кадру: 3840 х 2160
бітрейт: 51,7 Мбіт/сек
бітова глибина: 10 біт
кольоровий простір: BT.2020 (HDR)

Увага! Перед завантаженням переконайтесь, що ваш пристрій відтворення (та/або ПЗ) підтримує H.265 (HEVC)

Аудіо # 1:
мова: українська
переклад: професійний дубльований | студія ААА-sound
кодек: 5.1
бітрейт: 384 кб/с

Аудіо # 2:
мова: англійська
переклад: оригінал
кодек: Dolby TrueHD 7.1. Atmos
бітрейт: 3960 кб/с

Аудіо # 2:
мова: англійська
переклад: оригінал
кодек: -HD MA 7.1
бітрейт: 3934 кб/с

Аудіо # 3:
мова: англійська
переклад: оригінал
кодек: 5.1
бітрейт: 640 кб/с

Субтитри # 1-2:
мова: англійська(Full,SDH)
тип: програмні (м'які)
формат: *.srt
Info
Код:
General
Unique ID                                : 312716622213162780752454163670096999986 (0xEB4307DAD3E5BADBAF4A95BE1144F632)
Complete name                            : /Volumes/Download/Movies/Greenland.2020.Remux.2160p.HDR.[Urk.Eng].
Format                                   :
Format version                           : Version 4
File size                                : 59.2 GiB
Duration                                 : 1 h 59 min
Overall bit rate mode                    : Variable
Overall bit rate                         : 70.9 Mb/s
Movie name                               : Greenland.2020.Remux.2160p.HDR.[Urk.Eng]
Encoded date                             : UTC 2020-12-20 22:46:45
Writing application                      : v51.0.0 ('I Wish') 64-bit
Writing library                          : libebml v1.4.0 + v1.6.2
Cover                                    : Yes
Attachments                              : cover.jpg

Video
ID                                       : 1
ID in the original source medium         : 4113 (0x1011)
Format                                   : HEVC
Format/Info                              : High Efficiency Video Coding
Format profile                           : Main [email protected]@High
HDR format                               : SMPTE ST 2086, HDR10 compatible
Codec ID                                 : V_MPEGH/ISO/HEVC
Duration                                 : 1 h 59 min
Bit rate                                 : 61.9 Mb/s
Width                                    : 3 840 pixels
Height                                   : 2 160 pixels
Display aspect ratio                     : 16:9
Frame rate mode                          : Constant
Frame rate                               : 23.976 (24000/1001) FPS
Standard                                 : Component
Color space                              : YUV
Chroma subsampling                       : 4:2:0 (Type 2)
Bit depth                                : 10 bits
Bits/(Pixel*Frame)                       : 0.311
Stream size                              : 51.7 GiB (87%)
Language                                 : English
Default                                  : No
Forced                                   : No
Color range                              : Limited
Color primaries                          : BT.2020
Transfer characteristics                 : PQ
Matrix coefficients                      : BT.2020 non-constant
Mastering display color primaries        : Display P3
Mastering display luminance              : min: 0.0000 cd/m2, max: 1000 cd/m2
Maximum Content Light Level              : 1000 cd/m2
Maximum Frame-Average Light Level        : 638 cd/m2
Original source medium                   : Blu-ray

Audio #1
ID                                       : 2
Format                                   : AC-3
Format/Info                              : Audio Coding 3
Commercial name                          : Dolby Digital
Codec ID                                 : A_AC3
Duration                                 : 1 h 59 min
Bit rate mode                            : Constant
Bit rate                                 : 384 kb/s
Channel(s)                               : 6 channels
Channel layout                           : L R C LFE Ls Rs
Sampling rate                            : 48.0 kHz
Frame rate                               : 31.250 FPS (1536 SPF)
Compression mode                         : Lossy
Stream size                              : 328 MiB (1%)
Title                                    : студія AAA-Sound
Language                                 : Ukrainian
Service kind                             : Complete Main
Default                                  : Yes
Forced                                   : No

Audio #2
ID                                       : 3
ID in the original source medium         : 4353 (0x1101)
Format                                   : MLP FBA 16-ch
Format/Info                              : Meridian Lossless Packing FBA with 16-channel presentation
Commercial name                          : Dolby TrueHD with Dolby Atmos
Codec ID                                 : A_TRUEHD
Duration                                 : 1 h 59 min
Bit rate mode                            : Variable
Bit rate                                 : 3 960 kb/s
Maximum bit rate                         : 7 086 kb/s
Channel(s)                               : 8 channels
Channel layout                           : L R C LFE Ls Rs Lb Rb
Sampling rate                            : 48.0 kHz
Frame rate                               : 1 200.000 FPS (40 SPF)
Compression mode                         : Lossless
Stream size                              : 3.31 GiB (6%)
Title                                    : TrueHD 7.1. Atmos
Language                                 : English
Default                                  : No
Forced                                   : No
Original source medium                   : Blu-ray
Number of dynamic objects                : 11
Bed channel count                        : 1 channel
Bed channel configuration                : LFE

Audio #3
ID                                       : 4
Format                                   : XLL
Format/Info                              : Digital Theater Systems
Commercial name                          : -HD Master Audio
Codec ID                                 : A_DTS
Duration                                 : 1 h 59 min
Bit rate mode                            : Variable
Bit rate                                 : 3 934 kb/s
Channel(s)                               : 8 channels
Channel layout                           : C L R LFE Lb Rb Lss Rss
Sampling rate                            : 48.0 kHz
Frame rate                               : 93.750 FPS (512 SPF)
Bit depth                                : 24 bits
Compression mode                         : Lossless
Delay relative to video                  : 3 ms
Stream size                              : 3.29 GiB (6%)
Title                                    : -HD MA 7.1
Language                                 : English
Default                                  : No
Forced                                   : No

Audio #4
ID                                       : 5
ID in the original source medium         : 4353 (0x1101)
Format                                   : AC-3
Format/Info                              : Audio Coding 3
Commercial name                          : Dolby Digital
Codec ID                                 : A_AC3
Duration                                 : 1 h 59 min
Bit rate mode                            : Constant
Bit rate                                 : 640 kb/s
Channel(s)                               : 6 channels
Channel layout                           : L R C LFE Ls Rs
Sampling rate                            : 48.0 kHz
Frame rate                               : 31.250 FPS (1536 SPF)
Compression mode                         : Lossy
Delay relative to video                  : 14 ms
Stream size                              : 547 MiB (1%)
Title                                    : 5.1
Language                                 : English
Service kind                             : Complete Main
Default                                  : No
Forced                                   : No
Original source medium                   : Blu-ray

Text #1
ID                                       : 6
Format                                   : UTF-8
Codec ID                                 : S_TEXT/UTF8
Codec ID/Info                            : UTF-8 Plain Text
Duration                                 : 1 h 52 min
Bit rate                                 : 59 b/s
Count of elements                        : 1496
Stream size                              : 48.7 KiB (0%)
Title                                    : English-SRT
Language                                 : English
Default                                  : Yes
Forced                                   : No

Text #2
ID                                       : 7
Format                                   : UTF-8
Codec ID                                 : S_TEXT/UTF8
Codec ID/Info                            : UTF-8 Plain Text
Duration                                 : 1 h 52 min
Bit rate                                 : 68 b/s
Count of elements                        : 1758
Stream size                              : 56.6 KiB (0%)
Title                                    : English-SDH-SRT
Language                                 : English
Default                                  : No
Forced                                   : No

Menu
00:00:00.000                             : en:Chapter 01
00:14:35.875                             : en:Chapter 02
00:30:41.881                             : en:Chapter 03
00:45:21.719                             : en:Chapter 04
00:59:22.684                             : en:Chapter 05
01:14:57.201                             : en:Chapter 06
01:30:32.635                             : en:Chapter 07
01:45:14.224                             : en:Chapter 08
Скріншоти











Джерело: &
Особиста оцінка: 10 - без зайвих вагань рекомендую всім!


Золотий реліз (завантажене не впливає на рейтинг)
 Трекер:    Зареєстрований   

Завантажити / скачати фільм українською



відео для новачків



 Зареєстрований:   2020-12-22 12:07
 Розмір:   59.2 GB 
 Оцінка фільму:   8.9/10 (Голосів: 11)
   
Інші релізи
   Гренландія / Greenland (2020) 720p Ukr/Eng | Sub Eng eneyida.tv  12 / 0   6.29 GB   2020-12-21 23:36 
   Гренландія / Greenland (2020) antik_2008  28 / 1   1.94 GB   2020-12-21 22:18 
   Гренландія / Greenland (2020) Remux 1080p Ukr/Eng | Sub Eng antik_2008  6 / 0   21.32 GB   2020-12-21 20:27 
   Гренландія / Greenland (2020) AVC Ukr/Eng | Sub Eng staf777  19 / 0   2.54 GB   2020-12-19 22:21 
   Гренландія / Greenland (2020) 1080p Ukr/Eng | Sub Eng staf777  19 / 0   12.46 GB   2020-12-19 22:09 
tigershark 
Новенький


З нами з: 22.01.17
Востаннє: 07.01.21
Повідомлень: 2

2020-11-21 19:17  
Коли чекаєм нормальний звук?
RoMeL 
Відео Гуртом - підтримка та поширення
Відео Гуртом - підтримка та поширення


З нами з: 09.07.08
Востаннє: 19.01.21
Повідомлень: 319

2020-11-21 19:40  
Думаю в грудні
-snoop- 
Новенький


З нами з: 01.08.17
Востаннє: 13.01.21
Повідомлень: 5

2020-11-21 20:45  
А що зі звуком? Щось не так?
libracinema 
Частий відвідувач


З нами з: 27.10.17
Востаннє: 19.01.21
Повідомлень: 34

2020-11-22 00:21  
Кращий звук буде 18 грудня на Мегого
Dimax2 
Новенький


З нами з: 04.03.17
Востаннє: 15.01.21
Повідомлень: 10

2020-11-23 18:47  
-snoop-
Ну якщо ти слухаєш через колонку то ще ок. В навушниках це вже слухати неможливо як в бочці в один канал

antik_2008 
Релізер і модератор відео


З нами з: 20.10.08
Востаннє: 20.01.21
Повідомлень: 4620

2020-12-15 13:58  
RoMeL Вийшов ремукс 2160
RoMeL 
Відео Гуртом - підтримка та поширення
Відео Гуртом - підтримка та поширення


З нами з: 09.07.08
Востаннє: 19.01.21
Повідомлень: 319

2020-12-15 14:14  
antik_2008
дякую, реліз оновлю коли буде краща укр. доріжка

RoMeL 
Відео Гуртом - підтримка та поширення
Відео Гуртом - підтримка та поширення


З нами з: 09.07.08
Востаннє: 19.01.21
Повідомлень: 319

2020-12-22 12:18  
РЕЛІЗ ОНОВЛЕНО ДО Remux + УКР ДОРІЖКА 5.1

P.S. йде перевірка торента, десь за годину стану на роздачу

-Star-Lord- 
VIP


З нами з: 09.08.18
Востаннє: 20.01.21
Повідомлень: 2291

2020-12-22 12:28  
RoMeL написано:
P.S. йде перевірка торента, десь за годину стану на роздачу

Можна пропустити хешування

vash1 
VIP


З нами з: 16.03.16
Востаннє: 19.01.21
Повідомлень: 291

2020-12-22 19:05  
ого як швидко
modell 
Новенький


З нами з: 06.01.13
Востаннє: 11.01.21
Повідомлень: 1

2021-01-08 00:55  
Класний фільм. Дуже сподобався.
Ваш часовий пояс: GMT + 2 Години

Нова тема   Відповісти