Парад / Parade (2009) Jap | sub Ukr/Eng

Нові коментарі

Нова тема   Відповісти
Останній раз роздавалося babynuker (2020-11-28)
Автор Повідомлення
YesNoMaybe 
Новенький


З нами з: 08.10.17
Востаннє: 28.11.20
Повідомлень: 19

2020-11-20 18:24  
Парад / Parade (2009) Jap | sub Ukr/Eng

Парад / Parade (2009) Jap | sub Ukr/Eng

Альтернативні постери


Жанр: драма
Країна: Японія



Кінокомпанія: Wowow Films та ін.
Режисер: Юкісада Ісао
Актори: Фуджівара Тацуя, Каріна, Канджія Шіхорі, Хаяші Кенто, Кейске Койде та ін.

Сюжет:
Четверо знайомих ділять двокімнатну квартиру в Токіо. Одного дня, коли в їхній квартирі опиняється незнайомець, усе починає змінюватися.


Тривалість: 01:58:21
Якість:
Відео:
кодек:
розмір кадру: 704 х 400
бітрейт: 1 310 кб/с

Аудіо:
мова: японська
переклад: оригінал
кодек: 5.1
бітрейт: 448 кб/с

Субтитри:
мова: українська
тип: програмні (м'які)
формат: *.srt

Субтитри:
мова: англійська
тип: програмні (м'які)
формат: *.srt
Скріншоти
Info
Код:

General
Format                      : AVI
Format/Info                 : Audio Video Interleave
File size                   : 1.46 GiB
Duration                    : 1 h 58 min
Overall bit rate            : 1 764 kb/s

Video
ID                          : 0
Format                      : MPEG-4 Visual
Format profile              : Advanced [email protected]
Format settings             : Custom Matrix
Format settings, BVOP       : No
Format settings, QPel       : No
Format settings, GMC        : No warppoints
Format settings, Matrix     : Custom
Codec ID                    :
Codec ID/Hint               :
Duration                    : 1 h 58 min
Bit rate                    : 1 310 kb/s
Width                       : 704 pixels
Height                      : 400 pixels
Display aspect ratio        : 16:9
Frame rate                  : 23.976 (24000/1001) FPS
Color space                 : YUV
Chroma subsampling          : 4:2:0
Bit depth                   : 8 bits
Scan type                   : Progressive
Compression mode            : Lossy
Bits/(Pixel*Frame)          : 0.194
Stream size                 : 1.08 GiB (74%)
Writing library             : 1.2.1 (UTC 2008-12-04)

Audio
ID                          : 1
Format                      : AC-3
Format/Info                 : Audio Coding 3
Commercial name             : Dolby Digital
Codec ID                    : 2000
Duration                    : 1 h 58 min
Bit rate mode               : Constant
Bit rate                    : 448 kb/s
Channel(s)                  : 5 channels
Channel layout              : L R C Ls Rs
Sampling rate               : 48.0 kHz
Frame rate                  : 31.250 FPS (1536 SPF)
Bit depth                   : 16 bits
Compression mode            : Lossy
Stream size                 : 379 MiB (25%)
Alignment                   : Split accross interleaves
Interleave, duration        : 96  ms (2.30 video frames)
Interleave, preload duratio : 96  ms
Service kind                : Complete Main
Локалізація постерів та переклад: screenmy
Особиста оцінка: 9


 Трекер:    Зареєстрований   

Завантажити / скачати фільм українською



відео для новачків



 Зареєстрований:   2020-11-20 18:24
 Розмір:   1.46 GB 
 Оцінка фільму:   10/10 (Голосів: 3)
   
Ваш часовий пояс: GMT + 2 Години

Нова тема   Відповісти