Мандалорець (Сезон 1) / The Mandalorian (Season 1) (2019) UHD 2160p 4K HDR H.265 2xUkr/Eng | Sub Ukr

Нові коментарі

Нова тема   Відповісти
Автор Повідомлення
RoMeL 
Відео Гуртом - підтримка та поширення
Відео Гуртом - підтримка та поширення


З нами з: 09.07.08
Востаннє: 01.12.20
Повідомлень: 237

2020-11-19 20:06  
Мандалорець (Сезон 1) / The Mandalorian (Season 1) (2019) UHD 2160p 4K HDR H.265 2xUkr/Eng | Sub Ukr



Жанр: вестерн, пригодницький, фантастика, екшн
Країна: США



Кінокомпанія: Disney
Автор ідеї: Джон Фавро, Дейв Фіоні
Актори: Педро Паскаль, Карл Везерс та ін.

Сюжет:
Дія серіалу розгортається через кілька років після падіння Імперії, але до приходу до влади Першого Ордена. У центрі сюжету опиниться мисливець за головами, якому доведеться виживати на краю галактики.
Мандалорці - це войовничий народ, який складається з розумних істот різних рас. У центрі їх світогляду - війна, а також слава, яку вона приносить. Мандалорці вважаються найкращими воїнами галактики, тому багато хто з них стають найманцями.


Тривалість: 1 серія: 30 - 50 хв. (цілком серій: 8)
Перелік серій
01. Розділ перший: Мандалорець - Chapter One: The Mandalorian
02. Розділ другий: Дитя - Chapter Two: The Child
03. Розділ третій: Гріх - Chapter Three: The Sin
04. Розділ четвертий: Святилище - Chapter Four: Sanctuary
05. Розділ п’ятий: Стрілець - Chapter Five: The Gunslinger
06. Розділ шостий: В'язень - Chapter Six: The Prisoner
07. Розділ сьомий: Розрахунок - Chapter 7: The Reckoning
08. Розділ восьмий: Порятунок - Chapter Eight: Redemption
Якість: 4K 2160p HDR H.265
Відео:
кодек: H.265 (HEVC)
розмір кадру: 3840 х 1920
бітрейт: ~15.9 Мбіт/сек (залежить від серії)
бітова глибина: 10 біт
кольоровий простір: BT.2020 (HDR)

Увага! Перед завантаженням переконайтесь, що ваш пристрій відтворення (та/або ПЗ) підтримує H.265 (HEVC)

Аудіо # 1:
мова: українська | Т.С. Cтруґачка
переклад: багатоголосий закадровий
кодек: 5.1
бітрейт: 640 кб/с

Аудіо # 2:
мова: українська | (AnaivE)
переклад: одноголосий закадровий
кодек: 2.0
бітрейт: 384 кб/с

Аудіо # 3:
мова: англійська
переклад: оригінал
кодек: E- 5.1 + Atmos
бітрейт: 768 кб/с

Субтитри # 1:
мова: українська (повні) | Т.С. Cтруґачка
тип: програмні (м'які)
формат: *.srt
Info

Код:
General
Unique ID                                : 160193954686842995402676503402690477027 (0x78843BC1AEE2BF6102CE0AB58B9D7BE3)
Complete name                            : /Volumes/Download/Shows/The.Mandalorian.S01.2019..2160p.HDR.[Ukr.Eng]/The.Mandalorian.S01E01.2019..2160p.HDR.[Ukr.Eng].
Format                                   :
Format version                           : Version 4
File size                                : 4.90 GiB
Duration                                 : 39 min 37 s
Overall bit rate                         : 17.7 Mb/s
Movie name                               : The.Mandalorian.S01E01.2019..2160p.HDR.[Ukr.Eng]
Encoded date                             : UTC 2020-11-19 11:28:56
Writing application                      : v47.0.0 ('Black Flag') 64-bit
Writing library                          : libebml v1.3.10 + v1.5.2

Video
ID                                       : 1
Format                                   : HEVC
Format/Info                              : High Efficiency Video Coding
Format profile                           : Main [email protected]@High
Codec ID                                 : V_MPEGH/ISO/HEVC
Duration                                 : 39 min 37 s
Bit rate                                 : 15.9 Mb/s
Width                                    : 3 840 pixels
Height                                   : 2 160 pixels
Display aspect ratio                     : 16:9
Frame rate mode                          : Constant
Frame rate                               : 23.976 (24000/1001) FPS
Color space                              : YUV
Chroma subsampling                       : 4:2:0
Bit depth                                : 10 bits
Bits/(Pixel*Frame)                       : 0.080
Stream size                              : 4.41 GiB (90%)
Default                                  : Yes
Forced                                   : No
Color range                              : Limited
Color primaries                          : BT.2020
Transfer characteristics                 : PQ
Matrix coefficients                      : BT.2020 non-constant

Audio #1
ID                                       : 2
Format                                   : AC-3
Format/Info                              : Audio Coding 3
Commercial name                          : Dolby Digital
Codec ID                                 : A_AC3
Duration                                 : 38 min 46 s
Bit rate mode                            : Constant
Bit rate                                 : 640 kb/s
Channel(s)                               : 6 channels
Channel layout                           : L R C LFE Ls Rs
Sampling rate                            : 48.0 kHz
Frame rate                               : 31.250 FPS (1536 SPF)
Compression mode                         : Lossy
Delay relative to video                  : 3 s 0 ms
Stream size                              : 177 MiB (4%)
Title                                    : Ukrainian (strugachka)
Language                                 : Ukrainian
Service kind                             : Complete Main
Default                                  : Yes
Forced                                   : Yes

Audio #2
ID                                       : 3
Format                                   : AC-3
Format/Info                              : Audio Coding 3
Commercial name                          : Dolby Digital
Codec ID                                 : A_AC3
Duration                                 : 38 min 48 s
Bit rate mode                            : Constant
Bit rate                                 : 384 kb/s
Channel(s)                               : 2 channels
Channel layout                           : L R
Sampling rate                            : 48.0 kHz
Frame rate                               : 31.250 FPS (1536 SPF)
Compression mode                         : Lossy
Delay relative to video                  : 3 s 0 ms
Stream size                              : 107 MiB (2%)
Title                                    : Ukranian (AnaivE)
Language                                 : Ukrainian
Service kind                             : Complete Main
Default                                  : No
Forced                                   : No

Audio #3
ID                                       : 4
Format                                   : E-AC-3 JOC
Format/Info                              : Enhanced AC-3 with Joint Object Coding
Commercial name                          : Dolby Digital Plus with Dolby Atmos
Codec ID                                 : A_EAC3
Duration                                 : 39 min 37 s
Bit rate mode                            : Constant
Bit rate                                 : 768 kb/s
Channel(s)                               : 6 channels
Channel layout                           : L R C LFE Ls Rs
Sampling rate                            : 48.0 kHz
Frame rate                               : 31.250 FPS (1536 SPF)
Compression mode                         : Lossy
Stream size                              : 215 MiB (4%)
Title                                    : English
Language                                 : English
Service kind                             : Complete Main
Default                                  : No
Forced                                   : No
Complexity index                         : 16
Number of dynamic objects                : 15
Bed channel count                        : 1 channel
Bed channel configuration                : LFE

Text
ID                                       : 5
Format                                   : UTF-8
Codec ID                                 : S_TEXT/UTF8
Codec ID/Info                            : UTF-8 Plain Text
Duration                                 : 35 min 6 s
Bit rate                                 : 47 b/s
Count of elements                        : 293
Stream size                              : 12.1 KiB (0%)
Title                                    : Ukrainian
Language                                 : Ukrainian
Default                                  : No
Forced                                   : No
Скріншоти







Джерело: &
Особиста оцінка: 10 - без зайвих вагань рекомендую всім!


 Трекер:    Зареєстрований   

Завантажити / скачати серіал українською



відео для новачків



 Зареєстрований:   2020-11-19 22:39
 Розмір:   37.64 GB 
 Оцінка серіалу:   9.8/10 (Голосів: 8)
   
bot 
робот


З нами з: 30.09.07
Востаннє: 26.05.05
Повідомлень: 26422

2020-11-19 20:07  
Тему перенесено з Серіали в HD до форуму Анонси релізів


RoMeL

Cartwright 
VIP


З нами з: 23.03.13
Востаннє: 01.12.20
Повідомлень: 393

2020-11-19 20:11  
Там є ще третя озвучка від HDrezka Studio.
RoMeL 
Відео Гуртом - підтримка та поширення
Відео Гуртом - підтримка та поширення


З нами з: 09.07.08
Востаннє: 01.12.20
Повідомлень: 237

2020-11-19 20:20  
хм, коли робив небачив, що є третя, думаю з часом додам, зараз переробляти не хочеться Rolleyes (1)
bot 
робот


З нами з: 30.09.07
Востаннє: 26.05.05
Повідомлень: 26422

2020-11-19 22:39  
Тему перенесено з Анонси релізів до форуму Серіали в HD


RoMeL

RoMeL 
Відео Гуртом - підтримка та поширення
Відео Гуртом - підтримка та поширення


З нами з: 09.07.08
Востаннє: 01.12.20
Повідомлень: 237

2020-11-28 00:18  
прохання до модераторів перевірити даний реліз, вже тиждень в статусі "очікується перевірка"
Ваш часовий пояс: GMT + 2 Години

Нова тема   Відповісти