Antony Kalugin (Антон Калугiн) - Marshmallow Moondust (2020) [] | Progressive Rock

Нові коментарі

Нова тема   Відповісти
Автор Повідомлення
kolpavel 
VIP


З нами з: 04.05.14
Востаннє: 25.01.21
Повідомлень: 1366

2020-11-18 23:13  
Antony Kalugin (Антон Калугiн) - Marshmallow Moondust (2020) [] | Progressive Rock

Antony Kalugin (Антон Калугiн) - Marshmallow Moondust (2020) [] | Progressive Rock


Стиль: Progressive Rock
Країна, місто: Україна, Харкiв
Сайти: Офіційний сайт
Видавець: Caerllysi Music
Виконавці:
Aнтон Калугін: клавіші, вокал, перкусія, програмування.
Пісні:
    1 - Marshmallow - 20:20
    2 - Moondust - 20:20
    3 - Marshmallow Single - 07:20
    4 - Moondust Single - 07:20

Тривалість: 00:55:22
Мова: iнструментальнi композицiї
Аудіо-кодек:
Бітрейт: 805-895 кб/с
Джерело: трекер
Додаткова інформація:
Лог DRM
foobar2000 1.4.2 / Замер динамического диапазона (DR) 1.1.1
Дата отчёта: 2020-10-28 13:19:39

--------------------------------------------------------------------------------
Анализ: Antony Kalugin / Marshmallow Moondust
--------------------------------------------------------------------------------

DR Пики RMS Продолжительность трека
--------------------------------------------------------------------------------
DR10 -0.18 дБ -12.33 дБ 20:20 01-Marshmallow
DR11 -0.20 дБ -13.68 дБ 20:21 02-Moondust
DR10 0.00 дБ -11.91 дБ 7:21 03-Marshmallow Single
DR10 0.00 дБ -13.10 дБ 7:21 04-Moondust Single
--------------------------------------------------------------------------------

Количество треков: 4
Реальные значения DR: DR11

Частота: 44100 Гц
Каналов: 2
Разрядность: 16
Битрейт: 805 кбит/с
Кодек:
================================================================================
лог якостi
-----------------------

DON'T MODIFY THIS FILE

-----------------------

PERFORMER: auCDtect Task Manager, ver. 1.5.1RC3 build 1.5.1.4
Copyright (c) 2008-2010 y-soft. All rights reserved
http://y-soft.org

ANALYZER: auCDtect: CD records authenticity detector, version 0.8.2
Copyright (c) 2004 Oleg Berngardt. All rights reserved.
Copyright (c) 2004 Alexander Djourik. All rights reserved.

FILE: 04 - Moondust Single.
Size: 45205007 Hash: D853E8DB9D9898748E9DF9E62FE73A3E Accuracy: -m40
Conclusion: CDDA 100%
Signature: 86132DBFEFFB596591C772AFC8C7FC396E6A3B12
FILE: 03 - Marshmallow Single.
Size: 50155839 Hash: D29448CB340D67492156FF050164EAA6 Accuracy: -m40
Conclusion: CDDA 100%
Signature: B80FF35449A390E5CC12212FC872FA1387316A69
FILE: 02 - Moondust.
Size: 128074428 Hash: 4D5B0EA68F1FA80010F0B9127E283FAC Accuracy: -m40
Conclusion: CDDA 100%
Signature: 2D33BBC27618B261ED9ED8277646F15313E9F0C3
FILE: 01 - Marshmallow.
Size: 134177746 Hash: 03392E694F7819AC0C71853ABC61F6FE Accuracy: -m40
Conclusion: CDDA 100%
Signature: DF2429E253206EF645976CCB23CEA6FBB14D451D


Якщо Ви справді бажаєте підтримати українське - після прослуховування, якщо музика вам сподобалась, придбайте ліцензійний диск. Підтримаймо вітчизняних виконавців!


Срібний реліз (на рейтинг впливає 50% завантаженого)
 Трекер:    Зареєстрований   

Завантажити / скачати українську музику



відео для новачків



 Зареєстрований:   2020-11-18 23:13
 Розмір:   367 MB 
 Оцінка музики:   10/10 (Голосів: 3)
   
kolpavel 
VIP


З нами з: 04.05.14
Востаннє: 25.01.21
Повідомлень: 1366

2020-11-18 23:14  
Ваш часовий пояс: GMT + 2 Години

Нова тема   Відповісти