Фантастичний містер Лис / Fantastic Mr. Fox (2009) 1080p H.265 Ukr/Eng | Sub Eng

Нові коментарі

Нова тема   Відповісти
Автор Повідомлення
Anonymous 







2020-11-17 11:14  
Фантастичний містер Лис / Fantastic Mr. Fox (2009) 1080p H.265 Ukr/Eng | Sub Eng

Фантастичний містер Лис / Fantastic Mr. Fox (2009) 1080p H.265 Ukr/Eng | Sub Eng


Жанр: анімація, пригоди, комедія
Країна: США
Кінокомпанія: Twentieth Century Fox Film Corporation, Indian Paintbrush, Regency Enterprises
Режисер: Вес Андерсон
Актори: Джордж Клуні, Меріл Стріп, Джейсон Шварцман, Білл Мюррей, Воллес Володарскі, Ерік Чейз Андерсон, Майкл Гембон та інші

Сюжет:
Розлючені фермери, втомлені від постійних нападів "хитрого лиса" на курники, готуються знищити свого ворога та його "хитру" родину. Що вийде з цього протистояння ...

Тривалість: 01:26:44
Якість:

Відео:
кодек: H.265 (HEVC)
розмір кадру: 1920 x 1040
бітрейт: 5 303 кб/с
бітова глибина: 10 біт

Увага! Перед завантаженням переконайтесь, що ваш пристрій відтворення (та/або ПЗ) підтримує H.265 (HEVC)

Аудіо # 1:
мова: українська
озвучення: двоголосе закадрове
кодек: AC-3 2.0
бітрейт: 192 кб/с

Аудіо # 2:
мова: англійська
озвучення: оригінал
кодек: 5.1
бітрейт: 1510 кб/с

Субтитри # 1-2: (Full, SDH)
мова: англійська
тип: програмні (м'які)
формат: *.srt


Інформація про файл
Код:
==============================
x265 [info]: frame I: Avg QP:15.35 kb/s
x265 [info]: frame P: Avg QP:16.97 kb/s
x265 [info]: frame B: Avg QP:19.14 kb/s
==============================
General
Unique ID                                : 140477957674766121294522853268429220813 (0x69AF120DADBB55E18C2053954AD82BCD)
Complete name                            : Fantastic Mr. Fox (2009) 1080p H.265 [UKR_ENG] [Hurtom].
Format                                   :
Format version                           : Version 4
File size                                : 4.25 GiB
Duration                                 : 1 h 26 min
Overall bit rate                         : 7 010 kb/s
Movie name                               : Фантастичний містер Лис / Fantastic Mr. Fox (2009)
Encoded date                             : UTC 2020-11-17 08:50:34
Writing application                      : v20.0.0 ('I Am The Sun') 64-bit
Writing library                          : libebml v1.3.5 + v1.4.8
Cover                                    : Yes
Attachments                              : Cover.jpg

Video
ID                                       : 1
Format                                   : HEVC
Format/Info                              : High Efficiency Video Coding
Format profile                           : Main [email protected]@High
Codec ID                                 : V_MPEGH/ISO/HEVC
Duration                                 : 1 h 26 min
Bit rate                                 : 5 303 kb/s
Width                                    : 1 920 pixels
Height                                   : 1 040 pixels
Display aspect ratio                     : 1.85:1
Frame rate mode                          : Constant
Frame rate                               : 23.976 (23976/1000) FPS
Original frame rate                      : 23.976 (24000/1001) FPS
Color space                              : YUV
Chroma subsampling                       : 4:2:0
Bit depth                                : 10 bits
Bits/(Pixel*Frame)                       : 0.111
Stream size                              : 3.21 GiB (76%)
Title                                    : Фантастичний містер Лис / Fantastic Mr. Fox (2009)
Writing library                          : x265 3.4+10-g25b2c0703:[Windows][MSVC 1927][64 bit] 10bit
Encoding settings                        : cpuid=1111039 / frame-threads=4 / numa-pools=16 / wpp / no-pmode / no-pme / no-psnr / no-ssim / log-level=2 / input-csp=1 / input-res=1920x1040 / interlace=0 / total-frames=124786 / level-idc=41 / high-tier=1 / uhd-bd=0 / ref=5 / no-allow-non-conformance / no-repeat-headers / annexb / no-aud / no-hrd / info / hash=0 / no-temporal-layers / open-gop / min-keyint=23 / keyint=240 / gop-lookahead=0 / bframes=16 / b-adapt=2 / b-pyramid / bframe-bias=0 / rc-lookahead=60 / lookahead-slices=4 / scenecut=40 / hist-scenecut=0 / radl=0 / no-splice / no-intra-refresh / ctu=32 / min-cu-size=8 / rect / amp / max-tu-size=32 / tu-inter-depth=4 / tu-intra-depth=4 / limit-tu=1 / rdoq-level=2 / dynamic-rd=0.00 / no-ssim-rd / signhide / no-tskip / nr-intra=0 / nr-inter=0 / no-constrained-intra / no-strong-intra-smoothing / max-merge=4 / limit-refs=2 / limit-modes / me=3 / subme=7 / merange=57 / temporal-mvp / no-frame-dup / no-hme / weightp / weightb / no-analyze-src-pics / deblock=-3:-3 / no-sao / no-sao-non-deblock / rd=6 / selective-sao=0 / no-early-skip / no-rskip / no-fast-intra / no-tskip-fast / no-cu-lossless / no-b-intra / no-splitrd-skip / rdpenalty=0 / psy-rd=2.00 / psy-rdoq=1.00 / no-rd-refine / no-lossless / cbqpoffs=0 / crqpoffs=0 / rc=crf / crf=19.0 / qcomp=0.60 / qpstep=4 / stats-write=0 / stats-read=0 / vbv-maxrate=50000 / vbv-bufsize=50000 / vbv-init=0.9 / crf-max=0.0 / crf-min=0.0 / ipratio=1.40 / pbratio=1.30 / aq-mode=1 / aq-strength=1.00 / no-cutree / zone-count=0 / no-strict-cbr / qg-size=32 / no-rc-grain / qpmax=69 / qpmin=0 / no-const-vbv / sar=1 / overscan=0 / videoformat=5 / range=0 / colorprim=1 / transfer=1 / colormatrix=1 / chromaloc=0 / display-window=0 / cll=0,0 / min-luma=0 / max-luma=1023 / log2-max-poc-lsb=8 / vui-timing-info / vui-hrd-info / slices=1 / no-opt-qp-pps / no-opt-ref-list-length-pps / no-multi-pass-opt-rps / scenecut-bias=0.05 / hist-threshold=0.01 / no-opt-cu-delta-qp / no-aq-motion / no-hdr10 / no-hdr10-opt / no-dhdr10-opt / no-idr-recovery-sei / analysis-reuse-level=0 / analysis-save-reuse-level=0 / analysis-load-reuse-level=0 / scale-factor=0 / refine-intra=0 / refine-inter=0 / refine-mv=1 / refine-ctu-distortion=0 / no-limit-sao / ctu-info=0 / no-lowpass-dct / refine-analysis-type=0 / copy-pic=1 / max-ausize-factor=1.0 / no-dynamic-refine / no-single-sei / no-hevc-aq / no-svt / no-field / qp-adaptation-range=1.00 / no-scenecut-aware-qpconformance-window-offsets / right=0 / bottom=0 / decoder-max-rate=0
Default                                  : Yes
Forced                                   : No
Color range                              : Limited
Color primaries                          : BT.709
Transfer characteristics                 : BT.709
Matrix coefficients                      : BT.709

Audio #1
ID                                       : 2
Format                                   : AC-3
Format/Info                              : Audio Coding 3
Commercial name                          : Dolby Digital
Codec ID                                 : A_AC3
Duration                                 : 1 h 26 min
Bit rate mode                            : Constant
Bit rate                                 : 192 kb/s
Channel(s)                               : 2 channels
Channel layout                           : L R
Sampling rate                            : 48.0 kHz
Frame rate                               : 31.250 FPS (1536 SPF)
Compression mode                         : Lossy
Stream size                              : 119 MiB (3%)
Title                                    : AC-3 / 2.0 Ch / 192 kbps / DVO / Новий канал
Language                                 : Ukrainian
Service kind                             : Complete Main
Default                                  : Yes
Forced                                   : Yes

Audio #2
ID                                       : 3
Format                                   :
Format/Info                              : Digital Theater Systems
Codec ID                                 : A_DTS
Duration                                 : 1 h 26 min
Bit rate mode                            : Constant
Bit rate                                 : 1 509 kb/s
Channel(s)                               : 6 channels
Channel layout                           : C L R Ls Rs LFE
Sampling rate                            : 48.0 kHz
Frame rate                               : 93.750 FPS (512 SPF)
Bit depth                                : 24 bits
Compression mode                         : Lossy
Stream size                              : 936 MiB (22%)
Title                                    : / 5.1 Ch / 1509 kbps / Original
Language                                 : English
Default                                  : No
Forced                                   : No

Text #1
ID                                       : 4
Format                                   : UTF-8
Codec ID                                 : S_TEXT/UTF8
Codec ID/Info                            : UTF-8 Plain Text
Duration                                 : 1 h 19 min
Bit rate                                 : 79 b/s
Count of elements                        : 1166
Stream size                              : 46.1 KiB (0%)
Title                                    : Full
Language                                 : English
Default                                  : No
Forced                                   : No

Text #2
ID                                       : 5
Format                                   : UTF-8
Codec ID                                 : S_TEXT/UTF8
Codec ID/Info                            : UTF-8 Plain Text
Duration                                 : 1 h 25 min
Bit rate                                 : 72 b/s
Count of elements                        : 1330
Stream size                              : 45.6 KiB (0%)
Title                                    : SDH
Language                                 : English
Default                                  : No
Forced                                   : No

Menu
00:00:00.000                             : en:1. Main Title / Trapped!
00:04:30.353                             : en:2. Living in a Hole
00:06:35.729                             : en:3. Just Buy the Tree
00:09:59.974                             : en:4. Unwelcome Houseguest
00:14:35.875                             : en:5. One Last Big Job
00:17:00.811                             : en:6. Master Plan
00:21:22.072                             : en:7. Whack-Bat
00:23:56.894                             : en:8. Bean's Secret Cider Cellar
00:30:15.605                             : en:9. Tails Don't Grow Back
00:32:31.950                             : en:10. Dig!
00:36:20.011                             : en:11. No Ticks, No Lice
00:38:27.055                             : en:12. The Siege Begins
00:41:56.556                             : en:13. Triple Header
00:45:30.770                             : en:14. Ash's Brilliant Brainstorm
00:49:23.210                             : en:15. Apple Juice Flood
00:51:50.899                             : en:16. Waving the White Flag
00:54:45.365                             : en:17. Redemption
00:58:33.301                             : en:18. Going for Broke
01:01:19.342                             : en:19. On Fire
01:05:44.941                             : en:20. Rescue Mission
01:11:15.730                             : en:21. Less Than a Slice of Bread
01:14:22.917                             : en:22. What a Beautiful Creature
01:15:54.925                             : en:23. A Good Toast
01:20:00.462                             : en:24. Let Her Dance / End Titles
Світлини




Джерело: &
Особиста оцінка: 0 - не дивився


 Трекер:    Зареєстрований   

Завантажити / скачати мультфільм українською



відео для новачків



 Зареєстрований:   2020-11-17 11:14
 Розмір:   4.25 GB 
 Оцінка мультфільму:   9.8/10 (Голосів: 4)
   
shutbanderas 
VIP


З нами з: 09.04.09
Востаннє: 28.02.21
Повідомлень: 290

2020-11-17 13:46  
Суперовий мульт. Неодноразово його дивився...
Ваш часовий пояс: GMT + 2 Години

Нова тема   Відповісти