Назад у майбутнє. Трилогія / Back to the Future. Trilogy (1985-1989-1990) UHD Remux 4K 2160p HDR H.265 Ukr/Eng | Sub Ukr/Eng

Нові коментарі

Нова тема   Відповісти
немає
Автор Повідомлення
RoMeL 
Відео Гуртом - підтримка та поширення
Відео Гуртом - підтримка та поширення


З нами з: 09.07.08
Востаннє: 18.01.21
Повідомлень: 319

2020-11-17 00:11  
Назад у майбутнє. Трилогія / Back to the Future. Trilogy (1985-1989-1990) UHD Remux 4K 2160p HDR H.265 Ukr/Eng | Sub Ukr/Eng



Жанр: пригодницький, сімейний, фантастика
Країна: США



Кінокомпанія: Universal Pictures, Amblin Entertainment, U-Drive Productions
Режисер: Роберт Земекіс (Robert Zemeckis)
Ролі озвучують: Майкл Дж. Фокс (Michael J. Fox), Крістофер Ллойд (Christopher Lloyd), Ліа Томпсон (Lea Thompson), Кріспін Ґловер (Crispin Glover), Томас Ф. Вілсон (Thomas F. Wilson), Біллі Зейн (Billy Zane), Елайджа Вуд (Elijah Wood) та інші.

Сюжет:
Підліток Марті за допомогою машини часу, спорудженої його другом професором Доком, потрапляє з 80-х в далекі 50-і. Там він зустрічається з своїми майбутніми батьками, ще підлітками, і другом-професором, зовсім молодим. Він порушує природний хід подій минулого, чим викликає масу смішних і драматичних ситуацій. Власна кмітливість і фантазія професора допомагають здолати всі перешкоди і благополучно повернутися до себе, в свій час.


Тривалість: 01:48:32
Якість: Remux 4K 2160p HDR H.265
Відео:
кодек: H.265 (HEVC)
розмір кадру: 3840 х 2160
бітрейт: 73,2 Мбіт/сек
бітова глибина: 10 біт
кольоровий простір: BT.2020 (HDR)

Увага! Перед завантаженням переконайтесь, що ваш пристрій відтворення (та/або ПЗ) підтримує H.265 (HEVC)

Аудіо # 1:
мова: українська | 1+1
переклад: двоголосий закадровий
кодек: -HD MA 5.1
бітрейт: 4240 кб/с

Аудіо # 2:
мова: українська | Новий Канал
переклад: двоголосий закадровий
кодек:
бітрейт: 4240 кб/с

Аудіо # 3:
мова: англійська
переклад: оригінал
кодек: TrueHD Atmos 7.1
бітрейт: 4213 кб/с

Аудіо # 4:
мова: англійська
переклад: оригінал
кодек: AC-3 5.1
бітрейт: 448 кб/с

Аудіо # 5:
мова: англійська | Сommentary by Director Robert Zemeckis/Producer Bob Gale (Q&A)
переклад: оригінал
кодек: AC-3 2.0
бітрейт: 192 кб/с

Аудіо # 6:
мова: англійська | Commentary by Producers Bob Gale/Neil Canton
переклад: оригінал
кодек: AC-3 2.0
бітрейт: 192 кб/с

Субтитри # 1:
мова: українська
тип: програмні (м'які)
формат: *.srt

Субтитри # 2-3:
мова: англійська (Full, SDH)
тип: пререндерні
формат: *.pgs

Субтитри # 4:
мова: англійська (Commentary #1)
тип: пререндерні
формат: *.pgs

Субтитри # 5:
мова: англійська (Commentary #2)
тип: пререндерні
формат: *.pgs
Info
Код:
General
General
Unique ID                                : 314196759535622322617114288056864142555 (0xEC60184251046978EC8509B412B8F4DB)
Complete name                            : /Volumes/Download/Movies/Back.To.The.Future.1985.Remux.2160p.HDR.[Ukr.Eng].
Format                                   :
Format version                           : Version 4
File size                                : 70.4 GiB
Duration                                 : 1 h 56 min
Overall bit rate mode                    : Variable
Overall bit rate                         : 86.8 Mb/s
Movie name                               : Back.To.The.Future.1985.Remux.2160p.HDR.[Ukr.Eng]
Encoded date                             : UTC 2020-10-21 08:13:50
Writing application                      : v47.0.0 ('Black Flag') 64-bit
Writing library                          : libebml v1.3.10 + v1.5.2

Video
ID                                       : 1
Format                                   : HEVC
Format/Info                              : High Efficiency Video Coding
Format profile                           : Main [email protected]@High
HDR format                               : SMPTE ST 2094 App 4, Version 1, HDR10+ Profile B compatible
Codec ID                                 : V_MPEGH/ISO/HEVC
Duration                                 : 1 h 56 min
Bit rate                                 : 73.2 Mb/s
Width                                    : 3 840 pixels
Height                                   : 2 160 pixels
Display aspect ratio                     : 16:9
Frame rate mode                          : Constant
Frame rate                               : 23.976 (24000/1001) FPS
Color space                              : YUV
Chroma subsampling                       : 4:2:0 (Type 2)
Bit depth                                : 10 bits
Bits/(Pixel*Frame)                       : 0.368
Stream size                              : 59.3 GiB (84%)
Default                                  : Yes
Forced                                   : No
Color range                              : Limited
Color primaries                          : BT.2020
Transfer characteristics                 : PQ
Matrix coefficients                      : BT.2020 non-constant
Mastering display color primaries        : Display P3
Mastering display luminance              : min: 0.0050 cd/m2, max: 4000 cd/m2
Maximum Content Light Level              : 1000 cd/m2
Maximum Frame-Average Light Level        : 755 cd/m2

Audio #1
ID                                       : 2
Format                                   : XLL
Format/Info                              : Digital Theater Systems
Commercial name                          : -HD Master Audio
Codec ID                                 : A_DTS
Duration                                 : 1 h 56 min
Bit rate mode                            : Variable
Bit rate                                 : 4 240 kb/s
Channel(s)                               : 6 channels
Channel layout                           : C L R Ls Rs LFE
Sampling rate                            : 48.0 kHz
Frame rate                               : 93.750 FPS (512 SPF)
Bit depth                                : 24 bits
Compression mode                         : Lossless
Stream size                              : 3.44 GiB (5%)
Title                                    : Українська мова - двоголосий закадровий [1+1]
Language                                 : Ukrainian
Default                                  : Yes
Forced                                   : No

Audio #2
ID                                       : 3
Format                                   : XLL
Format/Info                              : Digital Theater Systems
Commercial name                          : -HD Master Audio
Codec ID                                 : A_DTS
Duration                                 : 1 h 56 min
Bit rate mode                            : Variable
Bit rate                                 : 4 240 kb/s
Channel(s)                               : 6 channels
Channel layout                           : C L R Ls Rs LFE
Sampling rate                            : 48.0 kHz
Frame rate                               : 93.750 FPS (512 SPF)
Bit depth                                : 24 bits
Compression mode                         : Lossless
Stream size                              : 3.44 GiB (5%)
Title                                    : Українська мова - двоголосий закадровий переклад [Новий канал]
Language                                 : Ukrainian
Default                                  : No
Forced                                   : No

Audio #3
ID                                       : 4
Format                                   : MLP FBA 16-ch
Format/Info                              : Meridian Lossless Packing FBA with 16-channel presentation
Commercial name                          : Dolby TrueHD with Dolby Atmos
Codec ID                                 : A_TRUEHD
Duration                                 : 1 h 56 min
Bit rate mode                            : Variable
Bit rate                                 : 4 213 kb/s
Maximum bit rate                         : 7 626 kb/s
Channel(s)                               : 8 channels
Channel layout                           : L R C LFE Ls Rs Lb Rb
Sampling rate                            : 48.0 kHz
Frame rate                               : 1 200.000 FPS (40 SPF)
Compression mode                         : Lossless
Stream size                              : 3.41 GiB (5%)
Title                                    : TrueHD Atmos 7.1
Language                                 : English
Default                                  : No
Forced                                   : No
Number of dynamic objects                : 11
Bed channel count                        : 1 channel
Bed channel configuration                : LFE

Audio #4
ID                                       : 5
Format                                   : AC-3
Format/Info                              : Audio Coding 3
Commercial name                          : Dolby Digital
Codec ID                                 : A_AC3
Duration                                 : 1 h 56 min
Bit rate mode                            : Constant
Bit rate                                 : 448 kb/s
Channel(s)                               : 6 channels
Channel layout                           : L R C LFE Ls Rs
Sampling rate                            : 48.0 kHz
Frame rate                               : 31.250 FPS (1536 SPF)
Compression mode                         : Lossy
Stream size                              : 372 MiB (1%)
Title                                    : 5.1
Language                                 : English
Service kind                             : Complete Main
Default                                  : No
Forced                                   : No

Audio #5
ID                                       : 6
Format                                   : AC-3
Format/Info                              : Audio Coding 3
Commercial name                          : Dolby Digital
Codec ID                                 : A_AC3
Duration                                 : 1 h 56 min
Bit rate mode                            : Constant
Bit rate                                 : 192 kb/s
Channel(s)                               : 2 channels
Channel layout                           : L R
Sampling rate                            : 48.0 kHz
Frame rate                               : 31.250 FPS (1536 SPF)
Compression mode                         : Lossy
Stream size                              : 159 MiB (0%)
Title                                    : Commentary by Director Robert Zemeckis/Producer Bob Gale (Q&A)
Language                                 : English
Service kind                             : Complete Main
Default                                  : No
Forced                                   : No

Audio #6
ID                                       : 7
Format                                   : AC-3
Format/Info                              : Audio Coding 3
Commercial name                          : Dolby Digital
Codec ID                                 : A_AC3
Duration                                 : 1 h 56 min
Bit rate mode                            : Constant
Bit rate                                 : 192 kb/s
Channel(s)                               : 2 channels
Channel layout                           : L R
Sampling rate                            : 48.0 kHz
Frame rate                               : 31.250 FPS (1536 SPF)
Compression mode                         : Lossy
Stream size                              : 159 MiB (0%)
Title                                    : Commentary by Producers Bob Gale/Neil Canton
Language                                 : English
Service kind                             : Complete Main
Default                                  : No
Forced                                   : No

Text #1
ID                                       : 8
Format                                   : UTF-8
Codec ID                                 : S_TEXT/UTF8
Codec ID/Info                            : UTF-8 Plain Text
Duration                                 : 1 h 50 min
Bit rate                                 : 96 b/s
Count of elements                        : 1503
Stream size                              : 77.6 KiB (0%)
Title                                    : Українська мова - Перекладачі: w2958l, yume, andy_fckl, ErusPenates; редагування : w2958l
Language                                 : Ukrainian
Default                                  : No
Forced                                   : No

Text #2
ID                                       : 9
Format                                   : PGS
Muxing mode                              : zlib
Codec ID                                 : S_HDMV/PGS
Codec ID/Info                            : Picture based subtitle format used on BDs/HD-DVDs
Duration                                 : 1 h 51 min
Bit rate                                 : 40.3 kb/s
Count of elements                        : 3044
Stream size                              : 32.1 MiB (0%)
Title                                    : English
Language                                 : English
Default                                  : No
Forced                                   : No

Text #3
ID                                       : 10
Format                                   : PGS
Muxing mode                              : zlib
Codec ID                                 : S_HDMV/PGS
Codec ID/Info                            : Picture based subtitle format used on BDs/HD-DVDs
Duration                                 : 1 h 51 min
Bit rate                                 : 44.1 kb/s
Count of elements                        : 3555
Stream size                              : 35.1 MiB (0%)
Title                                    : English (SDH)
Language                                 : English
Default                                  : No
Forced                                   : No

Text #4
ID                                       : 11
Format                                   : PGS
Muxing mode                              : zlib
Codec ID                                 : S_HDMV/PGS
Codec ID/Info                            : Picture based subtitle format used on BDs/HD-DVDs
Duration                                 : 1 h 51 min
Bit rate                                 : 66.9 kb/s
Count of elements                        : 3364
Stream size                              : 53.4 MiB (0%)
Title                                    : English (Commentary #1)
Language                                 : English
Default                                  : No
Forced                                   : No

Text #5
ID                                       : 12
Format                                   : PGS
Muxing mode                              : zlib
Codec ID                                 : S_HDMV/PGS
Codec ID/Info                            : Picture based subtitle format used on BDs/HD-DVDs
Duration                                 : 1 h 51 min
Bit rate                                 : 59.9 kb/s
Count of elements                        : 3246
Stream size                              : 48.0 MiB (0%)
Title                                    : English (Commentary #2)
Language                                 : English
Default                                  : No
Forced                                   : No
Скріншоти


Джерело: &
Особиста оцінка: 10 - без зайвих вагань рекомендую всім!
bot 
робот


З нами з: 30.09.07
Востаннє: 26.05.05
Повідомлень: 26925

2020-11-17 00:11  
Тему перенесено з Фільми в HD до форуму Анонси релізів


RoMeL
staf777 
Відео Гуртом - підтримка та поширення
Відео Гуртом - підтримка та поширення


З нами з: 16.11.16
Востаннє: 17.01.21
Повідомлень: 4804

2020-11-17 10:10  
Ого - ось це якість - скільки ж цікаво сам ріп важить
leicheman 
Відео Гуртом - фільмокрай
Відео Гуртом - фільмокрай


З нами з: 03.07.14
Востаннє: 17.01.21
Повідомлень: 5793

2020-11-17 10:13  
Є ще українські субтитри з нетфліксу, якщо не проти додати і їх то пишіть мені у пп

Ще є нові записи від пана Neytreenor з 1+1 і там якість набагато краща за звук у наявних релізах
Estranded 
VIP


З нами з: 09.02.14
Востаннє: 17.01.21
Повідомлень: 1541

2020-11-17 10:20  
А дубляжі де?
roseintherain 
Поважний учасник


З нами з: 06.02.16
Востаннє: 17.01.21
Повідомлень: 228

2020-11-17 13:51  
Мені релізи 2015 року більше подобаються, картинку не чіпали, а так знову HDR і затемнена картинка
RoMeL 
Відео Гуртом - підтримка та поширення
Відео Гуртом - підтримка та поширення


З нами з: 09.07.08
Востаннє: 18.01.21
Повідомлень: 319

2020-11-20 12:28  
Estranded написано:
А дубляжі де?

Якщо в когось є дубляжі, надайте мені їх, звукові укр доріжки я беру з цією роздачі https://toloka.to/t19119
Purlogin 
Свій


З нами з: 27.05.15
Востаннє: 17.01.21
Повідомлень: 71

2021-01-13 15:40  
хм, а хіба реально зробити з древнього DVD/VHS отаке, тобто 4k? Просто цікавило, як на HD каналах показують документалки, які знімалися до 2000-го, вони ж в форматі 4:3 виходили і якість не фонтан. Але на HD каналах такі виглядають добре
leicheman 
Відео Гуртом - фільмокрай
Відео Гуртом - фільмокрай


З нами з: 03.07.14
Востаннє: 17.01.21
Повідомлень: 5793

2021-01-13 16:14  
Purlogin
Сканують і реставрують оригіналу плівку
roseintherain 
Поважний учасник


З нами з: 06.02.16
Востаннє: 17.01.21
Повідомлень: 228

2021-01-13 18:05  
Purlogin написано:
хм, а хіба реально зробити з древнього DVD/VHS отаке, тобто 4k? Просто цікавило, як на HD каналах показують документалки, які знімалися до 2000-го

реально, якщо знято на кіноплівку (там зазвичай до 4k можна витиснути, хоча більшість старих фільмів реальних максимум 2k), там багато факторів, якість плівки/вид, якість об'єктиву + як збереглась ця плівка за років 50. А документалки якщо зняті на касети (бетаками, vhs і тп), то ні, тут просто ремастеринг якісний
Ваш часовий пояс: GMT + 2 Години

Нова тема   Відповісти