Вовча яма 2 / Wolf Creek 2 (2013) AVC Ukr/Eng | sub Eng

Нові коментарі

Нова тема   Відповісти
Автор Повідомлення
Arsenfpu 
Відео Гуртом - фільмокрай
Відео Гуртом - фільмокрай


З нами з: 30.04.09
Востаннє: 25.02.21
Повідомлень: 7914

2020-11-16 17:13  
Вовча яма 2 / Wolf Creek 2 (2013) AVC Ukr/Eng | sub Eng

Вовча яма 2 / Wolf Creek 2 (2013) AVC Ukr/Eng | sub Eng


Жанр: екшн, жахи, трилер
Країна: Австралія



Кінокомпанія: Screen Australia, The South Australian Film Corporation, Duo Art Productions
Режисер: Грег Маклін
Актори: Джон Джеррет, Райан Кор, Шеннон Ешлін, Філліпп Клаус, Шейн Коннор, Бен Джеррард, Герард Кеннеді, Енні Байрон

Сюжет:
Туристи Рутгер, Катаріна і Пол приїжджають до знаменитої австралійської пам'ятки, кратера погаслого вулкана Вовча Яма. Їх мрії про пригоди невдовзі звертаються в жахливу реальність, коли вони стикаються з сумно відомим місцевим жителем, садистом-вбивцею Міком Тейлором ...


Тривалість: 01:46:15
Якість:
Відео:
кодек:
розмір кадру: 1 152 х 490
бітрейт: 2 042 кб/с

Аудіо # 1:
мова: українська
переклад: багатоголосий закадровий
кодек: 2.0
бітрейт: 192 кб/с

Аудіо # 2:
мова: англійська
переклад: оригінал
кодек: 2.0
бітрейт: 192 кб/с

Субтитри:
мова: англійська
тип: програмні (м'які)
формат: *.srt
Скріншоти














Про файл
Format :
Format version : Version 4
File size : 1.80 GiB
Duration : 1 h 46 min
Overall bit rate : 2 429 kb/s
Movie name : Вовча яма 2 / Wolf Creek 2 (2013)
Encoded date : UTC 2020-11-23 20:11:33
Writing application : v21.0.0 ('Tardigrades Will Inherit The Earth') 32-bit
Writing library : libebml v1.3.5 + v1.4.8
Cover : Yes
Attachments : cover.jpg

Video
ID : 1
Format : AVC
Format/Info : Advanced Video Codec
Format profile : [email protected]
Format settings : CABAC / 12 Ref Frames
Format settings, CABAC : Yes
Format settings, Reference : 12 frames
Codec ID : V_MPEG4/ISO/AVC
Duration : 1 h 46 min
Bit rate : 2 042 kb/s
Width : 1 152 pixels
Height : 490 pixels
Display aspect ratio : 2.35:1
Frame rate mode : Constant
Frame rate : 23.976 (24000/1001) FPS
Color space : YUV
Chroma subsampling : 4:2:0
Bit depth : 8 bits
Scan type : Progressive
Bits/(Pixel*Frame) : 0.151
Stream size : 1.52 GiB (84%)
Writing library : core 135 r2345 f0c1c53
Encoding settings : cabac=1 / ref=12 / deblock=1:-3:-3 / analyse=0x3:0x113 / me=umh / subme=11 / psy=1 / psy_rd=1.10:0.00 / mixed_ref=1 / me_range=32 / chroma_me=1 / trellis=2 / 8x8dct=1 / cqm=0 / deadzone=21,11 / fast_pskip=1 / chroma_qp_offset=-2 / threads=6 / lookahead_threads=1 / sliced_threads=0 / nr=0 / decimate=1 / interlaced=0 / bluray_compat=0 / constrained_intra=0 / bframes=9 / b_pyramid=2 / b_adapt=2 / b_bias=0 / direct=3 / weightb=1 / open_gop=0 / weightp=2 / keyint=240 / keyint_min=23 / scenecut=40 / intra_refresh=0 / rc=2pass / mbtree=0 / bitrate=2042 / ratetol=1.0 / qcomp=0.60 / qpmin=0 / qpmax=69 / qpstep=4 / cplxblur=20.0 / qblur=0.5 / ip_ratio=1.40 / pb_ratio=1.30 / aq=2:0.90
Default : Yes
Forced : No

Audio #1
ID : 2
Format : AC-3
Format/Info : Audio Coding 3
Commercial name : Dolby Digital
Codec ID : A_AC3
Duration : 1 h 46 min
Bit rate mode : Constant
Bit rate : 192 kb/s
Channel(s) : 2 channels
Channel layout : L R
Sampling rate : 48.0 kHz
Frame rate : 31.250 FPS (1536 SPF)
Compression mode : Lossy
Stream size : 146 MiB (8%)
Title : amc
Language : Ukrainian
Service kind : Complete Main
Default : Yes
Forced : Yes

Audio #2
ID : 3
Format : AC-3
Format/Info : Audio Coding 3
Commercial name : Dolby Digital
Codec ID : A_AC3
Duration : 1 h 46 min
Bit rate mode : Constant
Bit rate : 192 kb/s
Channel(s) : 2 channels
Channel layout : L R
Sampling rate : 48.0 kHz
Frame rate : 31.250 FPS (1536 SPF)
Compression mode : Lossy
Stream size : 146 MiB (8%)
Language : English
Service kind : Complete Main
Default : No
Forced : No

Text #1
ID : 4
Format : UTF-8
Codec ID : S_TEXT/UTF8
Codec ID/Info : UTF-8 Plain Text
Duration : 1 h 37 min
Bit rate : 28 b/s
Count of elements : 702
Stream size : 20.1 KiB (0%)
Title : ENG Sub Full
Language : English
Default : No
Forced : No

Text #2
ID : 5
Format : UTF-8
Codec ID : S_TEXT/UTF8
Codec ID/Info : UTF-8 Plain Text
Duration : 1 h 38 min
Bit rate : 31 b/s
Count of elements : 874
Stream size : 22.8 KiB (0%)
Title : ENG Sub SDH
Language : English
Default : No
Forced : No

Menu
00:00:00.000 : :Chapter 01
00:11:50.626 : :Chapter 02
00:21:15.773 : :Chapter 03
00:31:41.064 : :Chapter 04
00:35:12.692 : :Chapter 05
00:44:41.510 : :Chapter 06
00:53:41.007 : :Chapter 07
00:59:07.750 : :Chapter 08
01:10:23.841 : :Chapter 09
01:19:18.250 : :Chapter 10
01:32:20.697 : :Chapter 11
01:41:23.698 : :Chapter 12
Джерело:
Особиста оцінка: це якісь жахи


 Трекер:    Зареєстрований   

Завантажити / скачати фільм українською



відео для новачків



 Зареєстрований:   2020-11-23 22:23
 Розмір:   1.8 GB 
 Оцінка фільму:   10/10 (Голосів: 6)
   
Інші релізи
   Вовча яма 2 / Wolf Creek 2 (2013) 1080p Ukr/Eng | Sub Eng Timm  1 / 0   8.86 GB   2021-01-08 01:55 
   Вовча яма 2 / Wolf Creek 2 (2013) 720p Ukr/Eng | sub Eng staf777  1 / 0   4.51 GB   2020-11-27 16:55 
staf777 
Відео Гуртом - підтримка та поширення
Відео Гуртом - підтримка та поширення


З нами з: 16.11.16
Востаннє: 25.02.21
Повідомлень: 5054

2020-11-17 17:30  
+720
bot 
робот


З нами з: 30.09.07
Востаннє: 26.05.05
Повідомлень: 27251

2020-11-23 22:22  
Тему перенесено з Анонси релізів до форуму Фільми


Arsenfpu

hetzendorf 
Забанено
Забанено


З нами з: 23.07.15
Востаннє: 05.01.21
Повідомлень: 2966

2020-11-25 00:59  
Попередній фільм не фонтан був, тож тут та сама Австралія, той самий режисер — однозначно не на краще.
clavaykraini 
Свій


З нами з: 16.05.14
Востаннє: 25.02.21
Повідомлень: 132

2020-11-25 21:27  
Перша частина, все дуже якісно - операторська робота, сценарій, підбір акторів. Перебіг подій не приголомшує карколомністю та зайвою метушнею, повільно та вельми цікаво. Датоване 2005-м, але не дуже характерне для цього періоду кіно (ще один з небагатьох винятків це Slither 2006) австралійцям притаманно запізнюватись років на 10 :-).
Другу частину дивитися не буду, позаяк перша цільна і не потребує продовжень.

Ваш часовий пояс: GMT + 2 Години

Нова тема   Відповісти