Gorchitza - Neytrino (2008) [FLAC] | House/Electro

Нові коментарі

Нова тема   Відповісти
Останній раз роздавалося sashazak (2015-05-04)
Автор Повідомлення
zeron 
Відео Гуртом - підтримка та поширення
Відео Гуртом - підтримка та поширення


З нами з: 07.05.08
Востаннє: 18.08.17
Повідомлень: 83

2010-02-28 22:12  
Gorchitza - Neytrino (2008) [FLAC] | House/Electro



Стиль: House, Electro
Країна, місто: Україна, Київ
Сайти: Офіційний сайт
Видавець: Lavina Music
Пісні:
    01. Neytrino Dance/Tau-A (5:39)
    02. Neytrino Adventure (5:16)
    03. Neytrino Flight (4:30)
    04. Neytrino Bad (5:51)
    05. 5V/ Neytrino Voice (4:42)
    06. 5V/ Neytrino Temper (4:03)
    07. 5V/ Neytrino Collider (4:37)
    08. Neytrino Adaptation (4:41)
    09. Neytrino Feeling Of Stay (3:53)
    10. Neytrino Love (3:51)
    11. Neytrino Again (1:18)
    12. Tom's Dinner Remix (6:37)
    13. Shined On Me Remix (7:00)
    14. One Secret Remix (5:03)
Лог EAC
Exact Audio Copy V0.99 prebeta 4 from 23. January 2008

Отчёт EAC об извлечении, выполненном 21. января 2009, 1:24

Gorchitza / Neytrino

Дисковод: _NEC CD-RW NR-9300A Adapter: 0 ID: 0

Режим чтения : Достоверность
Использование точного потока : Да
Отключение кэша аудио : Да
Использование указателей C2 : Нет

Коррекция смещения при чтении : 685
Способность читать области Lead-in и Lead-out : Нет
Заполнение пропущенных сэмплов тишиной : Да
Удаление блоков с тишиной в начале и конце : Нет
При вычислениях CRC использовались нулевые сэмплы : Да
Интерфейс : Встроенный Win32-интерфейс для Win NT/2000

Выходной формат : Пользовательский кодировщик
Выбранный битрейт : 768 kBit/s
Качество : Высокий
Добавление ID3-тэга : Да
Утилита сжатия : C:\Program Files\Exact Audio Copy\Flac\flac.exe
Дополнительные параметры : -6 -V -T "ARTIST=%a" -T "TITLE=%t" -T "ALBUM=%g" -T "DATE=%y" -T "TRACKNUMBER=%n" -T "GENRE=%m" -T "COMMENT=%e" %s -o %d

TOC извлечённого CD

Трек | Старт | Длительность | Начальный сектор | Конечный сектор
---------------------------------------------------------------------
1 | 0:00.00 | 5:39.67 | 0 | 25491
2 | 5:39.67 | 5:15.69 | 25492 | 49185
3 | 10:55.61 | 4:30.03 | 49186 | 69438
4 | 15:25.64 | 5:50.59 | 69439 | 95747
5 | 21:16.48 | 4:41.31 | 95748 | 116853
6 | 25:58.04 | 4:03.52 | 116854 | 135130
7 | 30:01.56 | 4:36.73 | 135131 | 155903
8 | 34:38.54 | 4:41.00 | 155904 | 176978
9 | 39:19.54 | 3:53.19 | 176979 | 194472
10 | 43:12.73 | 3:50.65 | 194473 | 211787
11 | 47:03.63 | 1:17.69 | 211788 | 217631
12 | 48:21.57 | 6:37.01 | 217632 | 247407
13 | 54:58.58 | 6:59.61 | 247408 | 278893
14 | 61:58.44 | 5:02.44 | 278894 | 301587

Характеристики диапазона извлечения и сообщения об ошибках

Выбранный диапазон

Имя файла C:\Gorchitza - Neytrino.wav

Пиковый уровень 100.0 %
Качество диапазона 99.9 %
CRC теста 041B81B7
CRC копии 041B81B7
Копирование... OK

Ошибок не произошло

AccurateRip: сводка

Трек 1 нет в базе данных
Трек 2 нет в базе данных
Трек 3 нет в базе данных
Трек 4 нет в базе данных
Трек 5 нет в базе данных
Трек 6 нет в базе данных
Трек 7 нет в базе данных
Трек 8 нет в базе данных
Трек 9 нет в базе данных
Трек 10 нет в базе данных
Трек 11 нет в базе данных
Трек 12 нет в базе данных
Трек 13 нет в базе данных
Трек 14 нет в базе данных

Ни одного трека нет в базе AccurateRip

Конец отчёта
Тривалість: 01:07:01
Мова: українська
Аудіо-кодек: FLAC (image + .cue)
Бітрейт: 898 кб/с
Джерело: rutracker
Додаткова інформація:
про альбом
Музика, представлена на цій платівці – це не те, що Ви вже чули в межах Gorchitza live project. Цього разу йдеться про сольний проект Олексія Gorchitza. Досі складалося так, що ми чули не так його твори, як розповіді про них – але розповіді були такими, що підігрівали цікавість. Ну а тепер, власне, ясно, чому нічний Київ так любить цю музику – навіть поширює і музику, і любов до неї за власні межі. Олексій Gorchitza створює треки, які, за всієї танцювальності, вимагають від слухача чогось більшого, ніж просто готовності поторохтіти м’якими частинами тіла. Мабуть, не буде помилкою назвати це – інтелігентною танцювальною музикою, в якій у дуже приємних пропорціях змішано жваві ритми і легкі, гнучкі мелодії. Вона не занурює у транс – але й на роль непомітного тла не годиться. І, звичайно, її можна слухати й просто так – але. Задоволення зростає, якщо слухач має вже якийсь початковий культурний слухацький багаж – в такому разі можна відчувати створені алегорії, упізнавати цитати, ну і так далі. Зрештою, не-автоматичні розваги, які вимагають від учасників реакції не тільки тіла, а й уваги – не набридають. І, на нашу думку, Олексій Gorchitza цілком здатен створювати саме таку музику – спокійно-розважальну, невимушену, не примітивну. УМКА
Якщо Ви справді бажаєте підтримати українське - після прослуховування, якщо музика вам сподобалась, придбайте ліцензійний диск.
Підтримаймо вітчизняних виконавців!


Срібний реліз (на рейтинг впливає 50% завантаженого)
 Трекер:    Зареєстрований   

Завантажити / скачати українську музику



відео для новачків



 Зареєстрований:   2010-02-28 22:12
 Розмір:   431 MB 
 Оцінка музики:   8/10 (Голосів: 4)
   
Ваш часовий пояс: GMT + 2 Години

Нова тема   Відповісти