Погань (Сезон 1) / Fleabag (Season 1) (2016) AVC Ukr/Eng

Нові коментарі

Нова тема   Відповісти
Автор Повідомлення
Цікава ідея 
VIP


З нами з: 25.12.11
Востаннє: 06.03.21
Повідомлень: 823

2020-11-15 16:50  
AVC | 1080p

Погань (Сезон 1) / Fleabag (Season 1) (2016) AVC Ukr/Eng


Погань (Сезон 1) / Fleabag (Season 1) (2016) AVC Ukr/Eng


Якщо вам сподобалося озвучення серіалу,
то ви можете підтримати нас за посиланням
ТИЦЬ


Жанр: драма, комедія
Країна: Велика Британія



Кінокомпанія / телеканал: Home Box Office (HBO), Leverage Management, Closest to the Hole Productions
Режисери: Гаррі Бредбір, Тім Кіркбі
Актори: Фібі Уоллер-Брідж, Сіан Кліффорд, Олівія Колман, Дженні Рейнсфорд, Білл Патерсон, Бретт Гельман, Ендрю Скотт, Хью Скіннер, Бен Елдрідж, Х'ю Денніс

Сюжет:
Сюжет розвивається навколо молодої дівчини, яка постійно потрапляє в неприємності. Головна героїня з усіх сил прагне змінити щось в цьому світі, але категорично не здатна приймати допомогу і поради оточуючих. Події серіалу відбуваються в сучасному Лондоні.


Перекладено та озвучено ТО "Цікава Ідея"


Тривалість: 1 серія: ~ 25 хв. (цілком серій: 6)
Перелік серій:

01. Episode #1.1
02. Episode #1.2
03. Episode #1.3
04. Episode #1.4
05. Episode #1.5
06. Episode #1.6
Якість: AVC
Відео:
кодек:
розмір кадру: 720 x 300
бітрейт: 1 100 кб/с

Аудіо # 1:
мова: українська | "Цікава Ідея"
переклад: професійний багатоголосий закадровий
кодек: 2.0
бітрейт: 256 кб/с

Аудіо # 2:
мова: англійська
переклад: оригінал
кодек: 2.0
бітрейт: 256 кб/с
Info
Код:
Format                                   :
Format version                           : Version 4
File size                                : 303 MiB
Duration                                 : 26 min 7 s
Overall bit rate                         : 1 621 kb/s
Movie name                               : Погань / Fleabag - S01E01 (2016) AVC [Ukr.Eng] [Цікава Ідея]
Encoded date                             : UTC 2020-11-09 16:51:26
Writing application                      : v50.0.0 ('Awakenings') 64-bit
Writing library                          : libebml v1.4.0 + v1.6.2
Cover                                    : Yes
Attachments                              : cover.jpg

Video
ID                                       : 1
Format                                   : AVC
Format/Info                              : Advanced Video Codec
Format profile                           : [email protected]
Format settings                          : CABAC / 5 Ref Frames
Format settings, CABAC                   : Yes
Format settings, Reference frames        : 5 frames
Codec ID                                 : V_MPEG4/ISO/AVC
Duration                                 : 26 min 5 s
Bit rate                                 : 1 100 kb/s
Width                                    : 720 pixels
Height                                   : 300 pixels
Display aspect ratio                     : 2.40:1
Original display aspect ratio            : 2.40:1
Frame rate mode                          : Constant
Frame rate                               : 25.000 FPS
Color space                              : YUV
Chroma subsampling                       : 4:2:0
Bit depth                                : 8 bits
Scan type                                : Progressive
Bits/(Pixel*Frame)                       : 0.204
Stream size                              : 204 MiB (67%)
Writing library                          : core 148 r2795M aaa9aa8
Encoding settings                        : cabac=1 / ref=5 / deblock=1:-1:-1 / analyse=0x3:0x113 / me=umh / subme=9 / psy=1 / psy_rd=1.00:0.15 / mixed_ref=1 / me_range=16 / chroma_me=1 / trellis=2 / 8x8dct=1 / cqm=0 / deadzone=21,11 / fast_pskip=1 / chroma_qp_offset=-3 / threads=24 / lookahead_threads=2 / sliced_threads=0 / nr=0 / decimate=1 / interlaced=0 / bluray_compat=0 / constrained_intra=0 / bframes=3 / b_pyramid=2 / b_adapt=2 / b_bias=0 / direct=3 / weightb=1 / open_gop=0 / weightp=2 / keyint=250 / keyint_min=25 / scenecut=40 / intra_refresh=0 / rc_lookahead=50 / rc=abr / mbtree=1 / bitrate=1100 / ratetol=1.0 / qcomp=0.60 / qpmin=0 / qpmax=69 / qpstep=4 / ip_ratio=1.40 / aq=1:1.00
Default                                  : Yes
Forced                                   : No

Audio #1
ID                                       : 2
Format                                   : AC-3
Format/Info                              : Audio Coding 3
Commercial name                          : Dolby Digital
Codec ID                                 : A_AC3
Duration                                 : 26 min 7 s
Bit rate mode                            : Constant
Bit rate                                 : 256 kb/s
Channel(s)                               : 2 channels
Channel layout                           : L R
Sampling rate                            : 44.1 kHz
Frame rate                               : 28.711 FPS (1536 SPF)
Compression mode                         : Lossy
Delay relative to video                  : -43 ms
Stream size                              : 47.8 MiB (16%)
Title                                    : Цікава Ідея
Language                                 : Ukrainian
Service kind                             : Complete Main
Default                                  : Yes
Forced                                   : No

Audio #2
ID                                       : 3
Format                                   : LC
Format/Info                              : Advanced Audio Codec Low Complexity
Codec ID                                 : A_AAC-2
Duration                                 : 26 min 6 s
Bit rate                                 : 256 kb/s
Channel(s)                               : 2 channels
Channel layout                           : L R
Sampling rate                            : 48.0 kHz
Frame rate                               : 46.875 FPS (1024 SPF)
Compression mode                         : Lossy
Delay relative to video                  : -43 ms
Stream size                              : 47.8 MiB (16%)
Title                                    : Original
Language                                 : English
Default                                  : No
Forced                                   : No
Скріншоти



Перекладено та озвучено творчим об'єднанням:


Авторський реліз (завантажувати можна без реєстрації)
 Трекер:    Зареєстрований   

Завантажити / скачати серіал українською



відео для новачків



 Зареєстрований:   2020-12-26 23:06
 Розмір:   1.72 GB 
 Оцінка серіалу:   9.8/10 (Голосів: 21)
   
don pedro 
Попереджень: 1
Попереджень: 1 


З нами з: 29.06.11
Востаннє: 06.03.21
Повідомлень: 18898

2020-11-23 02:37  
Хороший серіал. Все одно веселий і милий, хоч головна героїня і справді рідкісне сміття. І вона, до речі,
Цікава ідея написано:
оловна героїня з усіх сил прагне змінити щось в цьому світі
, нічого не хоче змінити у цьому світі, а просто пливе за течією, бухає, лажає і трахається, не отримуючи при цьому жодного задоволення від життя. І це правдиво, бо таких людей повно довкола.
istoruk 
Свій


З нами з: 12.04.09
Востаннє: 05.03.21
Повідомлень: 147

2021-02-08 22:38  
Другий сезон?
Masanchick 
VIP


З нами з: 08.04.11
Востаннє: 06.03.21
Повідомлень: 1235

2021-02-08 23:08  
istoruk
Колись, збір поки не проводили, я запитував на сайті цікавої ідеї, сказали, що в планах є

Ваш часовий пояс: GMT + 2 Години

Нова тема   Відповісти