Погань (Сезон 1, серії 1-3) / Fleabag (Season 1, episodes 1-3) (2016) 1080p Ukr/Eng

Нові коментарі

Нова тема   Відповісти
Автор Повідомлення
Цікава ідея 
VIP


З нами з: 25.12.11
Востаннє: 04.12.20
Повідомлень: 731

2020-11-15 16:49  
AVC | 1080p

Погань (Сезон 1, серії 1-3) / Fleabag (Season 1, episodes 1-3) (2016) 1080p Ukr/Eng


Погань (Сезон 1, серії 1-3) / Fleabag (Season 1, episodes 1-3) (2016) 1080p Ukr/Eng


На озвучення серіалу проходить ЗБІР КОШТІВ


Жанр: драма, комедія
Країна: Велика Британія



Кінокомпанія / телеканал: Home Box Office (HBO), Leverage Management, Closest to the Hole Productions
Режисери: Гаррі Бредбір, Тім Кіркбі
Актори: Фібі Уоллер-Брідж, Сіан Кліффорд, Олівія Колман, Дженні Рейнсфорд, Білл Патерсон, Бретт Гельман, Ендрю Скотт, Хью Скіннер, Бен Елдрідж, Х'ю Денніс

Сюжет:
Сюжет розвивається навколо молодої дівчини, яка постійно потрапляє в неприємності. Головна героїня з усіх сил прагне змінити щось в цьому світі, але категорично не здатна приймати допомогу і поради оточуючих. Події серіалу відбуваються в сучасному Лондоні.


Перекладено та озвучено ТО "Цікава Ідея"


Тривалість: 1 серія: ~ 25 хв. (цілком серій: 3/6)
Перелік серій:

01. Episode #1.1
02. Episode #1.2
03. Episode #1.3
04. Episode #1.4
05. Episode #1.5
06. Episode #1.6
Якість: 1080p
Відео:
кодек:
розмір кадру: 1920 x 808
бітрейт: 10.5 мб/с

Аудіо # 1:
мова: українська | "Цікава Ідея"
переклад: професійний багатоголосий закадровий
кодек: 2.0
бітрейт: 256 кб/с

Аудіо # 2:
мова: англійська
переклад: оригінал
кодек: 2.0
бітрейт: 1509 кб/с
Info
Код:
Format                                   :
Format version                           : Version 4
File size                                : 2.23 GiB
Duration                                 : 26 min 7 s
Overall bit rate                         : 12.2 Mb/s
Movie name                               : Погань / Fleabag - S01E01 (2016) 1080p [Ukr.Eng] [Цікава Ідея]
Encoded date                             : UTC 2020-11-09 16:42:47
Writing application                      : v50.0.0 ('Awakenings') 64-bit
Writing library                          : libebml v1.4.0 + v1.6.2
Cover                                    : Yes
Attachments                              : cover.jpg

Video
ID                                       : 1
Format                                   : AVC
Format/Info                              : Advanced Video Codec
Format profile                           : [email protected]
Format settings                          : CABAC / 5 Ref Frames
Format settings, CABAC                   : Yes
Format settings, Reference frames        : 5 frames
Codec ID                                 : V_MPEG4/ISO/AVC
Duration                                 : 26 min 5 s
Bit rate                                 : 10.5 Mb/s
Width                                    : 1 920 pixels
Height                                   : 808 pixels
Display aspect ratio                     : 2.40:1
Frame rate mode                          : Constant
Frame rate                               : 25.000 FPS
Color space                              : YUV
Chroma subsampling                       : 4:2:0
Bit depth                                : 8 bits
Scan type                                : Progressive
Bits/(Pixel*Frame)                       : 0.270
Stream size                              : 1.91 GiB (85%)
Writing library                          : core 157 r2932 303c484
Encoding settings                        : cabac=1 / ref=5 / deblock=1:-3:-3 / analyse=0x3:0x113 / me=umh / subme=8 / psy=1 / psy_rd=1.00:0.00 / mixed_ref=1 / me_range=32 / chroma_me=1 / trellis=1 / 8x8dct=1 / cqm=0 / deadzone=21,11 / fast_pskip=1 / chroma_qp_offset=-2 / threads=12 / lookahead_threads=2 / sliced_threads=0 / nr=0 / decimate=1 / interlaced=0 / bluray_compat=0 / constrained_intra=0 / bframes=3 / b_pyramid=2 / b_adapt=2 / b_bias=0 / direct=3 / weightb=1 / open_gop=0 / weightp=2 / keyint=250 / keyint_min=25 / scenecut=40 / intra_refresh=0 / rc_lookahead=50 / rc=2pass / mbtree=1 / bitrate=10462 / ratetol=1.0 / qcomp=0.60 / qpmin=0 / qpmax=69 / qpstep=4 / cplxblur=20.0 / qblur=0.5 / ip_ratio=1.40 / aq=3:0.80
Default                                  : Yes
Forced                                   : No

Audio #1
ID                                       : 2
Format                                   : AC-3
Format/Info                              : Audio Coding 3
Commercial name                          : Dolby Digital
Codec ID                                 : A_AC3
Duration                                 : 26 min 7 s
Bit rate mode                            : Constant
Bit rate                                 : 256 kb/s
Channel(s)                               : 2 channels
Channel layout                           : L R
Sampling rate                            : 44.1 kHz
Frame rate                               : 28.711 FPS (1536 SPF)
Compression mode                         : Lossy
Stream size                              : 47.8 MiB (2%)
Title                                    : Цікава Ідея
Language                                 : Ukrainian
Service kind                             : Complete Main
Default                                  : Yes
Forced                                   : No

Audio #2
ID                                       : 3
Format                                   :
Format/Info                              : Digital Theater Systems
Codec ID                                 : A_DTS
Duration                                 : 26 min 6 s
Bit rate mode                            : Constant
Bit rate                                 : 1 509 kb/s
Channel(s)                               : 2 channels
Channel layout                           : Lt Rt
Sampling rate                            : 48.0 kHz
Frame rate                               : 93.750 FPS (512 SPF)
Bit depth                                : 24 bits
Compression mode                         : Lossy
Stream size                              : 282 MiB (12%)
Title                                    : Original
Language                                 : English
Default                                  : No
Forced                                   : No
Скріншоти



Перекладено та озвучено творчим об'єднанням:


Авторський реліз (завантажувати можна без реєстрації)
 Трекер:    Зареєстрований   

Завантажити / скачати серіал українською



відео для новачків



 Зареєстрований:   2020-11-15 16:49
 Розмір:   6.68 GB 
 Оцінка серіалу:   10/10 (Голосів: 5)
   
Neytreenor 
Відео Гуртом - запис з ТБ
Відео Гуртом - запис з ТБ


З нами з: 03.04.11
Востаннє: 05.12.20
Повідомлень: 2925

2020-11-15 17:52  
Ніби непогане вийшло озвучення як для ЦІ, але сам серіал повна хрінь.
bogdanmtv 
Частий відвідувач


З нами з: 02.01.13
Востаннє: 03.12.20
Повідомлень: 48

2020-11-15 21:49  
Чому ж без 5.1 звуку? Sad (1)
Цікава ідея 
VIP


З нами з: 25.12.11
Востаннє: 04.12.20
Повідомлень: 731

2020-11-15 22:23  
bogdanmtv написано:
Чому ж без 5.1 звуку?

А де він є до серіалу? Знайшли лише стерео.

bogdanmtv 
Частий відвідувач


З нами з: 02.01.13
Востаннє: 03.12.20
Повідомлень: 48

2020-11-15 22:26  
Цікава ідея
Бачив на torrentday релізи з 5.1 звуком

Masanchick 
Попереджень: 1
Попереджень: 1 


З нами з: 08.04.11
Востаннє: 05.12.20
Повідомлень: 632

2020-11-15 22:28  
bogdanmtv
Його в природі не існує
Sound Mix Stereo

https://www.imdb.com/title/tt5687612/technical?ref_=tt_dt_spec

bogdanmtv 
Частий відвідувач


З нами з: 02.01.13
Востаннє: 03.12.20
Повідомлень: 48

2020-11-15 22:57  
Masanchick
Значить на трекері якось зробити 6-канальнтй звук..

Neytreenor 
Відео Гуртом - запис з ТБ
Відео Гуртом - запис з ТБ


З нами з: 03.04.11
Востаннє: 05.12.20
Повідомлень: 2925

2020-11-15 23:05  
Існує 4K HEVC HDR з Amazon і там звук дійсно 5.1.
Masanchick 
Попереджень: 1
Попереджень: 1 


З нами з: 08.04.11
Востаннє: 05.12.20
Повідомлень: 632

2020-11-15 23:17  
Neytreenor
Тоді беру свої слова назад, цікаво чому про це у імдб не написано

Ваш часовий пояс: GMT + 2 Години

Нова тема   Відповісти