Покагонтес (Покахонтас): Дилогія / Pocahontas Dilogy (1995/1998) Remux 1080p Ukr/Eng | Sub Eng

Нові коментарі

Нова тема   Відповісти
Автор Повідомлення
sandman 
VIP


З нами з: 12.08.12
Востаннє: 07.03.21
Повідомлень: 441

2020-11-14 18:29  
Покагонтес (Покахонтас): Дилогія / Pocahontas Dilogy (1995/1998) Remux 1080p Ukr/Eng | Sub Eng

Покагонтес (Покахонтас): Дилогія / Pocahontas Dilogy (1995/1998) Remux 1080p Ukr/Eng | Sub Eng
Покагонтес (Покахонтас) / Pocahontas (1995) Remux 1080p 2xUkr/Eng | Sub Eng
Покагонтес (Покахонтас) / Pocahontas (1995) Remux 1080p 2xUkr/Eng | Sub Eng

Український постер
Жанр: пригодницький, драма, анімація
Країна: США



Кінокомпанія: Walt Disney Pictures, Walt Disney Feature Animation / Buena Vista Pictures
Режисер: Майк Ґебріел, Ерік Ґолдберґ
Ролі озвучують: Джо Бейкер, Крістіан Бейл, Ірен Бедард, Біллі Конноллі, Джим Каммінґс та інші

Сюжет:
Екіпаж, як пояснює капітан, пливе назустріч пригодам, успіху, багатству. Але сам капітан має намір знайти там щось цілком визначене — золото. Корабель причалює до одного з берегів Нового Світу, щоб запастися водою. Джон Сміт, головний герой, відправляється на розвідку, тоді як Покагонтес - принцеса індіанців - стежить за незвичайними людьми, які вторглися на їх землі. Тут вона бачить незнайомця, Джона, і стежить за ним. Той у свою чергу в пів ока спостерігає за нею і ось, нарешті, вони зустрічаються... Кохання з першого погляду... Заборонене кохання, яке має пройти через безліч перешкод...

Тривалість: 01:21:08
Якість: Remux 1080p
Відео:
кодек: AVC
розмір кадру: 1920x1080
бітрейт: 21,8 Мб/с

Аудіо # 1:
мова: українська
переклад: професійний дубльований | студія LeDoyen
кодек: 2.0
бітрейт: 192 кб/с

Аудіо # 2:
мова: українська
переклад: багатоголосий закадровий [Повне озвучення]
кодек: 5.1
бітрейт: 640 кб/с

Аудіо # 3:
мова: українська
переклад: багатоголосий закадровий [Без пісень]
кодек: 5.1
бітрейт: 640 кб/с

Аудіо # 4:
мова: англійська
переклад: оригінал
кодек: -HD MA 5.1
бітрейт: 3100 кб/с

Субтитри # 1:
мова: українська (Форсовані, на пісні)
тип: програмні (м'які)
формат: *.srt

Субтитри # 2:
мова: англійська (повні)
тип: програмні (м'які)
формат: *.srt

Збережено оригінальні іменовані розділи, як на Blu-ray.
Info

General
Unique ID : 192470142398939873633004683030369990502 (0x90CC66AC2C6B8C53F3B76FC7CA90F766)
Complete name : /Users/yura/Movies/Pocahontas Dilogy/Pocahontas (1995) BDRMX1080p.
Format :
Format version : Version 4
File size : 15.4 GiB
Duration : 1 h 21 min
Overall bit rate mode : Variable
Overall bit rate : 27.1 Mb/s
Movie name : Pocahontas (1995)
Encoded date : UTC 2020-11-14 09:10:10
Writing application : v50.0.0 ('Awakenings') 64-bit
Writing library : libebml v1.4.0 + v1.6.2
Cover : Yes
Attachments : cover.jpg

Video
ID : 1
Format : AVC
Format/Info : Advanced Video Codec
Format profile : [email protected]
Format settings : CABAC / 4 Ref Frames
Format settings, CABAC : Yes
Format settings, Reference frames : 4 frames
Codec ID : V_MPEG4/ISO/AVC
Duration : 1 h 21 min
Bit rate mode : Variable
Bit rate : 21.8 Mb/s
Maximum bit rate : 33.2 Mb/s
Width : 1 920 pixels
Height : 1 080 pixels
Display aspect ratio : 16:9
Frame rate mode : Constant
Frame rate : 23.976 (24000/1001) FPS
Color space : YUV
Chroma subsampling : 4:2:0
Bit depth : 8 bits
Scan type : Progressive
Bits/(Pixel*Frame) : 0.439
Stream size : 12.4 GiB (81%)
Default : Yes
Forced : No

Audio #1
ID : 2
Format : AC-3
Format/Info : Audio Coding 3
Commercial name : Dolby Digital
Codec ID : A_AC3
Duration : 1 h 21 min
Bit rate mode : Constant
Bit rate : 192 kb/s
Channel(s) : 2 channels
Channel layout : L R
Sampling rate : 48.0 kHz
Frame rate : 31.250 FPS (1536 SPF)
Compression mode : Lossy
Stream size : 111 MiB (1%)
Title : DUB [LeDoyen] [email protected]
Language : Ukrainian
Service kind : Complete Main
Default : Yes
Forced : Yes

Audio #2
ID : 3
Format : AC-3
Format/Info : Audio Coding 3
Commercial name : Dolby Digital
Codec ID : A_AC3
Duration : 1 h 21 min
Bit rate mode : Constant
Bit rate : 640 kb/s
Channel(s) : 6 channels
Channel layout : L R C LFE Ls Rs
Sampling rate : 48.0 kHz
Frame rate : 31.250 FPS (1536 SPF)
Compression mode : Lossy
Stream size : 371 MiB (2%)
Title : MVO [Baibako.TV] [email protected]
Language : Ukrainian
Service kind : Complete Main
Default : No
Forced : No

Audio #3
ID : 4
Format : AC-3
Format/Info : Audio Coding 3
Commercial name : Dolby Digital
Codec ID : A_AC3
Duration : 1 h 21 min
Bit rate mode : Constant
Bit rate : 640 kb/s
Channel(s) : 6 channels
Channel layout : L R C LFE Ls Rs
Sampling rate : 48.0 kHz
Frame rate : 31.250 FPS (1536 SPF)
Compression mode : Lossy
Stream size : 371 MiB (2%)
Title : MVO [Baibako.TV] [email protected] [No Songs]
Language : Ukrainian
Service kind : Complete Main
Default : No
Forced : No

Audio #4
ID : 5
Format : XLL
Format/Info : Digital Theater Systems
Commercial name : -HD Master Audio
Codec ID : A_DTS
Duration : 1 h 21 min
Bit rate mode : Variable
Bit rate : 3 783 kb/s
Channel(s) : 6 channels
Channel layout : C L R Ls Rs LFE
Sampling rate : 48.0 kHz
Frame rate : 93.750 FPS (512 SPF)
Bit depth : 24 bits
Compression mode : Lossless
Stream size : 2.14 GiB (14%)
Title : Original -HD MA [email protected]
Language : English
Default : No
Forced : No

Text #1
ID : 6
Format : UTF-8
Codec ID : S_TEXT/UTF8
Codec ID/Info : UTF-8 Plain Text
Duration : 1 h 7 min
Bit rate : 19 b/s
Count of elements : 213
Stream size : 9.62 KiB (0%)
Title : UkrFoced [Songs]
Language : Ukrainian
Default : No
Forced : No

Text #2
ID : 7
Format : UTF-8
Codec ID : S_TEXT/UTF8
Codec ID/Info : UTF-8 Plain Text
Duration : 1 h 14 min
Bit rate : 61 b/s
Count of elements : 976
Stream size : 33.4 KiB (0%)
Title : EngFull
Language : English
Default : No
Forced : No

Menu
00:00:00.000 : en:Off To The New World / "The Virginia Company"
00:03:59.906 : en:Governor Ratcliffe
00:05:29.495 : en:Opening Credits / "Steady As A Beating Drum"
00:07:41.169 : en:Pocahontas
00:10:50.316 : en:Pocahontas Tells Her Father About Her Dream
00:12:38.466 : en:"Just Around The Riverbend"
00:15:08.908 : en:Grandmother Willow
00:16:48.757 : en:Advice From Grandmother Willow / "Listen With Your Heart"
00:18:13.801 : en:The New World
00:22:39.608 : en:Powhatan's Council
00:25:01.416 : en:Digging For Gold / "Mine, Mind, Mine"
00:28:51.438 : en:John Smith Meets Pocahontas
00:33:32.343 : en:A Clash Between The Settlers And The Indians
00:35:59.782 : en:Getting To Know One Other
00:39:19.857 : en:"Colors Of The Wind"
00:43:13.424 : en:Finishing The Fortess
00:45:37.151 : en:In The Cornfield
00:48:03.046 : en:John Smith Meets Grandmother Willow
00:50:39.911 : en:The Warriors Arrive
00:54:07.953 : en:Pocahontas Runs Off to Meet John Smith
00:56:04.361 : en:The Final Meeting
01:01:50.373 : en:Pocahontas Visits The Prisoner
01:06:25.314 : en:"Savages"
01:08:17.384 : en:Pocahontas Understands Her Dream
01:09:24.660 : en:Sunrise / "Savages" (Part 2)
01:10:30.017 : en:Pocahontas Saves John Smith
01:13:35.202 : en:The Departure
01:15:37.658 : en:End Credits / "If I Never Knew You" & "Colors Of The Wind"
Скріншоти







Покагонтес (Покахонтас) 2: Повернення в новий світ / Pocahontas II: Journey to a New World (1998) Remux 1080p Ukr/Eng | Sub Eng
Покагонтес (Покахонтас) 2: Повернення в новий світ / Pocahontas II: Journey to a New World (1998) Remux 1080p Ukr/Eng | Sub Eng

Український постер
Жанр: анімація, пригоди, драма, сімейний, мюзикл, романтичний
Країна: США



Кінокомпанія: Disneytoon Studios, Walt Disney Pictures
Режисер: Том Еллері, Бредлі Реймонд
Ролі озвучують: Ірен Бедард, Донал Ґібсон, Джим Каммінґс, Фінола Г’юз, Лінда Ган, Рассел Мінс, Девід Оґден Стаєрс та інші

Сюжет:
Коли новина про смерть Джона Сміта досягає Америки, дочка індіанського вождя Покагонтес, разом зі своїм другом, єнотом Міко, відправляється у важкий шлях у Лондон щоб встановити мир між двома великими землями. Однак, правитель Реткліфф неподалік, він намагається захопити Джеймстаун і ціна для нього не має значення, ніщо не зупинить його в бажанні обмовити принцесу ...

Тривалість: 01:13:09
Якість: Remux 1080p
Відео:
кодек: AVC
розмір кадру: 1920x1080
бітрейт: 19,9 Мб/с

Аудіо # 1:
мова: українська
переклад: професійний дубльований | студія LeDoyen
кодек: 2.0
бітрейт: 192 кб/с

Аудіо # 2:
мова: українська
переклад: багатоголосий закадровий
кодек: 2.0
бітрейт: 192 кб/с

Аудіо # 3:
мова: англійська
переклад: оригінал
кодек: -HD MA 5.1
бітрейт: 2822 кб/с

Субтитри # 1-2:
мова: англійська (повні, SDH)
тип: програмні (м'які)
формат: *.srt

Збережено оригінальні іменовані розділи, як на Blu-ray.
Info

General
Unique ID : 129230904641057758163136463473915974215 (0x6138F786AECC103D98F97BBAFAFFD247)
Complete name : /Users/yura/Movies/Pocahontas Dilogy/Pocahontas II Journey to a New World (1998) BDRMX1080p.
Format :
Format version : Version 4
File size : 11.8 GiB
Duration : 1 h 13 min
Overall bit rate mode : Variable
Overall bit rate : 23.1 Mb/s
Movie name : Pocahontas II: Journey to a New World (1998)
Encoded date : UTC 2020-11-14 09:25:40
Writing application : v50.0.0 ('Awakenings') 64-bit
Writing library : libebml v1.4.0 + v1.6.2
Cover : Yes
Attachments : cover.jpg

Video
ID : 1
ID in the original source medium : 4113 (0x1011)
Format : AVC
Format/Info : Advanced Video Codec
Format profile : [email protected]
Format settings : CABAC / 4 Ref Frames
Format settings, CABAC : Yes
Format settings, Reference frames : 4 frames
Codec ID : V_MPEG4/ISO/AVC
Duration : 1 h 13 min
Bit rate mode : Variable
Bit rate : 19.9 Mb/s
Maximum bit rate : 36.0 Mb/s
Width : 1 920 pixels
Height : 1 080 pixels
Display aspect ratio : 16:9
Frame rate mode : Constant
Frame rate : 23.976 (24000/1001) FPS
Color space : YUV
Chroma subsampling : 4:2:0
Bit depth : 8 bits
Scan type : Progressive
Bits/(Pixel*Frame) : 0.400
Stream size : 10.2 GiB (86%)
Default : Yes
Forced : No
Original source medium : Blu-ray

Audio #1
ID : 2
Format : AC-3
Format/Info : Audio Coding 3
Commercial name : Dolby Digital
Codec ID : A_AC3
Duration : 1 h 13 min
Bit rate mode : Constant
Bit rate : 192 kb/s
Channel(s) : 2 channels
Channel layout : L R
Sampling rate : 48.0 kHz
Frame rate : 31.250 FPS (1536 SPF)
Compression mode : Lossy
Stream size : 100 MiB (1%)
Title : DUB [LeDoyen] [email protected]
Language : Ukrainian
Service kind : Complete Main
Default : Yes
Forced : Yes

Audio #2
ID : 3
Format : AC-3
Format/Info : Audio Coding 3
Commercial name : Dolby Digital
Codec ID : A_AC3
Duration : 1 h 13 min
Bit rate mode : Constant
Bit rate : 192 kb/s
Channel(s) : 2 channels
Channel layout : L R
Sampling rate : 48.0 kHz
Frame rate : 31.250 FPS (1536 SPF)
Compression mode : Lossy
Stream size : 100 MiB (1%)
Title : MVO [K1] [email protected]
Language : Ukrainian
Service kind : Complete Main
Default : No
Forced : No

Audio #3
ID : 4
ID in the original source medium : 4352 (0x1100)
Format : XLL
Format/Info : Digital Theater Systems
Commercial name : -HD Master Audio
Codec ID : A_DTS
Duration : 1 h 13 min
Bit rate mode : Variable
Bit rate : 2 822 kb/s
Channel(s) : 6 channels
Channel layout : C L R Ls Rs LFE
Sampling rate : 48.0 kHz
Frame rate : 93.750 FPS (512 SPF)
Bit depth : 24 bits
Compression mode : Lossless
Stream size : 1.44 GiB (12%)
Title : Original -HD MA [email protected]
Language : English
Default : No
Forced : No
Original source medium : Blu-ray

Text #1
ID : 5
Format : UTF-8
Codec ID : S_TEXT/UTF8
Codec ID/Info : UTF-8 Plain Text
Duration : 1 h 6 min
Bit rate : 49 b/s
Count of elements : 686
Stream size : 24.4 KiB (0%)
Title : EngFull
Language : English
Default : No
Forced : No

Text #2
ID : 6
Format : UTF-8
Codec ID : S_TEXT/UTF8
Codec ID/Info : UTF-8 Plain Text
Duration : 1 h 7 min
Bit rate : 59 b/s
Count of elements : 888
Stream size : 29.3 KiB (0%)
Title : EngSDH
Language : English
Default : No
Forced : No

Menu
00:00:00.000 : en:1. The Downfall Of John Smith
00:02:53.298 : en:2. Main Title/Winter Fun
00:05:57.107 : en:3. "Where Do I Go From Here"
00:09:32.071 : en:4. Tensions Mount
00:12:31.668 : en:5. A Gift Of Peace
00:15:27.593 : en:6. Grandmother Willow
00:17:40.518 : en:7. Saying Goodbye
00:21:18.319 : en:8. Stowaways
00:25:42.124 : en:9. "What A Day In London"
00:31:23.632 : en:10. Mrs. Jenkins
00:33:28.173 : en:11. Ratcliffe Sets A Trap
00:35:44.976 : en:12. "Wait 'Til He Sees You"
00:40:57.580 : en:13. The Hunt Ball
00:45:17.882 : en:14. "Things Are Not What They Appear"
00:47:53.788 : en:15. Savage Behavior
00:49:34.680 : en:16. A Mysterious Stranger
00:51:09.525 : en:17. A Daring Rescue
00:55:48.345 : en:18. Reprise: "Where Do I Go From Here"
00:58:09.319 : en:19. Audience With A Princess
00:59:50.337 : en:20. Stopping The Armada
01:03:31.349 : en:21. Different Paths
01:05:55.285 : en:22. Honoring The Heart
01:07:35.134 : en:23. "Between Two Worlds"/End Credits
Скріншоти







Джерело: &


Золотий реліз (завантажене не впливає на рейтинг)
 Трекер:    Зареєстрований   

Завантажити / скачати мультфільм українською



відео для новачків



 Зареєстрований:   2020-11-14 18:29
 Розмір:   27.16 GB 
 Оцінка мультфільму:   10/10 (Голосів: 5)
   
roalad 
VIP


З нами з: 22.06.12
Востаннє: 08.03.21
Повідомлень: 420

2020-11-14 21:50  
Добавте, будь ласка, в шапку назву теми.
sandman 
VIP


З нами з: 12.08.12
Востаннє: 07.03.21
Повідомлень: 441

2020-11-14 22:49  
roalad дякую, що зауважили – виправив.
Ваш часовий пояс: GMT + 2 Години

Нова тема   Відповісти