Темні і злі / The Dark and the Wicked (2020) 720p Eng | sub Ukr

Нові коментарі

Нова тема   Відповісти
Автор Повідомлення
killer2015 
Поважний учасник


З нами з: 30.01.15
Востаннє: 01.12.20
Повідомлень: 197

2020-11-14 18:03  
Темні і злі / The Dark and the Wicked (2020) 720p Eng | sub Ukr

Темні і злі / The Dark and the Wicked (2020) 720p Eng | sub Ukr


Жанр: Жахи
Країна: США



Кінокомпанія: Traveling Picture Show Company (TPSC), Unbroken Pictures, Shotgun Shack Pictures
Режисер: Брайан Бертіно
Актори: Марін Айрленд, Майкл Ебботт мл., Ксандер Берклі, Лінн Ендрюс, Джулі Олівер-Тачстоун, Том Ноуікі, Елла Беллентайн, Мел Кауен, Мінді Реймонд, Кріс Дабек

Сюжет:
Брат з сестрою Майкл і Луїз приїжджають на віддалену батьківську ферму побачитися з тяжкохворим літнім батьком, але мати не дуже-то рада їх бачити. Вона каже дітям, що дарма вони приїхали, і на наступний день вішається в сараї. Майклу обставини її смерті здаються дивними, а Луїз знаходить щоденник матері, де та описує якусь злісну сутність, що підбирається все ближче.


Тривалість: 01:35:29
Якість: 720p
Відео:
кодек:
розмір кадру: 1280x544
бітрейт: 1 952 кб/с

Аудіо:
мова: англійська
переклад: оригінал
кодек: 5.1
бітрейт: 448 кб/с

Субтитри:
мова: українська
(власний переклад з англійської)
тип: програмні (м'які)
формат: *.srt
МІ
General
Unique ID : 314300553557490359617611178348414518822 (0xEC7415B30DA08EA47B4F5AA9140C4626)
Complete name : G:\Фільми\The.Dark.and.the.Wicked.2020.720p.AMZN..DDP5.1.-NTG\The.Dark.and.the.Wicked.2020.720p.AMZN..DDP5.1.-NTG.
Format :
Format version : Version 4
File size : 1.60 GiB
Duration : 1 h 35 min
Overall bit rate mode : Constant
Overall bit rate : 2 402 kb/s
Movie name : The.Dark.and.the.Wicked.2020.720p.AMZN..DDP5.1.-NTG
Encoded date : UTC 2020-11-14 15:45:29
Writing application : v47.0.0 ('Black Flag') 64-bit
Writing library : libebml v1.3.10 + v1.5.2
Cover : Yes
Attachments : Cover.jpg / Cover 2.jpg

Video
ID : 1
Format : AVC
Format/Info : Advanced Video Codec
Format profile : [email protected]
Format settings : CABAC / 4 Ref Frames
Format settings, CABAC : Yes
Format settings, Reference frames : 4 frames
Codec ID : V_MPEG4/ISO/AVC
Duration : 1 h 35 min
Bit rate mode : Constant
Bit rate : 1 952 kb/s
Nominal bit rate : 6 000 kb/s
Width : 1 280 pixels
Height : 544 pixels
Display aspect ratio : 2.35:1
Original display aspect ratio : 2.35:1
Frame rate mode : Constant
Frame rate : 23.976 (24000/1001) FPS
Color space : YUV
Chroma subsampling : 4:2:0
Bit depth : 8 bits
Scan type : Progressive
Bits/(Pixel*Frame) : 0.117
Stream size : 1.30 GiB (81%)
Title : -=DoMiNo=-
Language : English
Default : Yes
Forced : No
Color range : Limited
Color primaries : BT.709
Transfer characteristics : BT.709
Matrix coefficients : BT.709

Audio
ID : 2
Format : AC-3
Format/Info : Audio Coding 3
Commercial name : Dolby Digital
Codec ID : A_AC3
Duration : 1 h 35 min
Bit rate mode : Constant
Bit rate : 448 kb/s
Channel(s) : 6 channels
Channel layout : L R C LFE Ls Rs
Sampling rate : 48.0 kHz
Frame rate : 31.250 FPS (1536 SPF)
Compression mode : Lossy
Stream size : 306 MiB (19%)
Language : English
Service kind : Complete Main
Default : No
Forced : No
Скріншоти





Джерело:
Особиста оцінка: 8 - мені сподобалося


Золотий реліз (завантажене не впливає на рейтинг)
 Трекер:    Зареєстрований   

Завантажити / скачати фільм українською



відео для новачків



 Зареєстрований:   2020-11-14 18:03
 Розмір:   1.6 GB 
 Оцінка фільму:   9.8/10 (Голосів: 4)
   
killer2015 
Поважний учасник


З нами з: 30.01.15
Востаннє: 01.12.20
Повідомлень: 197

2020-11-14 18:06  
Хороший фільм. Мені сподобався.


Ваш часовий пояс: GMT + 2 Години

Нова тема   Відповісти