Гренландія / Greenland (2020) 720p Ukr/Eng | Sub Eng

Нові коментарі

Нова тема   Відповісти
Автор Повідомлення
eneyida.tv 
Свій


З нами з: 27.09.19
Востаннє: 16.01.21
Повідомлень: 72

2020-11-13 21:02  
Гренландія / Greenland (2020) 720p Ukr/Eng | Sub Eng

Гренландія / Greenland (2020) 720p Ukr/Eng | Sub Eng


Країна: США, Велика Британія
Жанр: Бойовик, Трилер



Кінокомпанія: Thunder Road Pictures, Riverstone Pictures
Режисер: Рік Роман Во / Ric Roman Waugh
Актори: Джерард Батлер / Gerard Butler, Морена Баккарін / Morena Baccarin, Роджер Дейл Флойд / Roger Dale Floyd, Скот Ґленн / Scott Glenn, Рендал Гонзалез / Randal Gonzalez, Рік Паскуалоне / Rick Pasqualone, Ніколя Ламбо / Nicola Lambo та інші.

Сюжет:
Уламки гігантської комети мчать до Землі і загрожують знищити планету. Кінець світу здається неминучим. Єдине безпечне місце — бункер у далекій Гренландії. Джон, його дружина та син вирушають у небезпечну подорож. На їхньому шляху до порятунку — не лише руйнівні уламки комети, але й паніка людей, які збожеволіли від жаху. Під час глобальної катастрофи людські закони вже не діють і кожен — сам за себе…


Тривалість: 01:59:27
Якість: 720p
Відео:
кодек:
розмір кадру: 1280 x 536
бітрейт: 6512 кб/с

Аудіо # 1:
мова: українська
озвучення: професійне дубльоване | студія AAA-Sound
кодек: 5.1
бітрейт: 384 кб/с

Аудіо # 2:
мова: англійська
озвучення: оригінал
кодек: 5.1
бітрейт: 640 кб/с

Субтитри #1:
мова: англійська
тип: програмні (м'які)
формат: *.srt
Info
Код:
General
Complete name                            : Greenland [2020] 720p [ukr, eng] [eneyida.tv].
Format                                   :
Format version                           : Version 4
File size                                : 6.29 GiB
Duration                                 : 1 h 59 min
Overall bit rate                         : 7 537 kb/s
Movie name                               : Гренландія / Greenland (2020)
Encoded date                             : UTC 2020-12-21 21:30:24
Writing application                      : v30.1.0 ('Forever And More') 64-bit
Writing library                          : libebml v1.3.6 + v1.4.9
Cover                                    : Yes
Attachments                              : cover.jpg

Video
ID                                       : 1
Format                                   : AVC
Format/Info                              : Advanced Video Codec
Format profile                           : [email protected]
Format settings                          : CABAC / 12 Ref Frames
Format settings, CABAC                   : Yes
Format settings, RefFrames               : 12 frames
Codec ID                                 : V_MPEG4/ISO/AVC
Duration                                 : 1 h 59 min
Bit rate                                 : 6 512 kb/s
Width                                    : 1 280 pixels
Height                                   : 536 pixels
Display aspect ratio                     : 2.40:1
Frame rate mode                          : Constant
Frame rate                               : 23.976 (24000/1001) FPS
Color space                              : YUV
Chroma subsampling                       : 4:2:0
Bit depth                                : 8 bits
Scan type                                : Progressive
Bits/(Pixel*Frame)                       : 0.396
Stream size                              : 5.43 GiB (86%)
Writing library                          : core 161 r3018+53 ~ Encoded by Mocunaman in Portugal
Encoding settings                        : cabac=1 / ref=12 / deblock=1:-3:-3 / analyse=0x3:0x113 / me=umh / subme=11 / psy=1 / fade_compensate=0.00 / psy_rd=1.00:0.00 / mixed_ref=1 / me_range=32 / chroma_me=1 / trellis=2 / 8x8dct=1 / cqm=0 / deadzone=21,11 / fast_pskip=0 / chroma_qp_offset=-2 / threads=17 / lookahead_threads=2 / sliced_threads=0 / nr=0 / decimate=0 / interlaced=0 / bluray_compat=0 / constrained_intra=0 / fgo=0 / bframes=8 / b_pyramid=2 / b_adapt=2 / b_bias=0 / direct=3 / weightb=1 / open_gop=0 / weightp=2 / keyint=250 / keyint_min=23 / scenecut=40 / intra_refresh=0 / rc_lookahead=60 / rc=crf / mbtree=0 / crf=16.5000 / qcomp=0.65 / qpmin=0:0:0 / qpmax=69:69:69 / qpstep=4 / vbv_maxrate=62500 / vbv_bufsize=78125 / crf_max=0.0 / nal_hrd=none / filler=0 / ip_ratio=1.30 / pb_ratio=1.20 / aq=3:0.85 / aq-sensitivity=10.00 / aq-factor=1.00:1.00:1.00 / aq2=0 / aq3=0
Language                                 : English
Default                                  : Yes
Forced                                   : No
Color range                              : Limited
Color primaries                          : BT.709
Transfer characteristics                 : BT.709
Matrix coefficients                      : BT.709

Audio #1
ID                                       : 2
Format                                   : AC-3
Format/Info                              : Audio Coding 3
Commercial name                          : Dolby Digital
Codec ID                                 : A_AC3
Duration                                 : 1 h 59 min
Bit rate mode                            : Constant
Bit rate                                 : 384 kb/s
Channel(s)                               : 6 channels
Channel layout                           : L R C LFE Ls Rs
Sampling rate                            : 48.0 kHz
Frame rate                               : 31.250 FPS (1536 SPF)
Bit depth                                : 16 bits
Compression mode                         : Lossy
Stream size                              : 328 MiB (5%)
Title                                    : 5.1 | 384
Language                                 : Ukrainian
Service kind                             : Complete Main
Default                                  : Yes
Forced                                   : No

Audio #2
ID                                       : 3
Format                                   : AC-3
Format/Info                              : Audio Coding 3
Commercial name                          : Dolby Digital
Codec ID                                 : A_AC3
Duration                                 : 1 h 59 min
Bit rate mode                            : Constant
Bit rate                                 : 640 kb/s
Channel(s)                               : 6 channels
Channel layout                           : L R C LFE Ls Rs
Sampling rate                            : 48.0 kHz
Frame rate                               : 31.250 FPS (1536 SPF)
Bit depth                                : 16 bits
Compression mode                         : Lossy
Stream size                              : 547 MiB (8%)
Title                                    : 5.1 | 640
Language                                 : English
Service kind                             : Complete Main
Default                                  : No
Forced                                   : No

Text
ID                                       : 4
Format                                   : UTF-8
Codec ID                                 : S_TEXT/UTF8
Codec ID/Info                            : UTF-8 Plain Text
Duration                                 : 1 h 52 min
Bit rate                                 : 70 b/s
Count of elements                        : 1758
Stream size                              : 58.3 KiB (0%)
Title                                    : SDH
Language                                 : English
Default                                  : No
Forced                                   : No

Menu
00:00:00.000                             : :Chapter 01
00:14:35.583                             : :Chapter 02
00:30:41.923                             : :Chapter 03
00:45:21.177                             : :Chapter 04
00:59:22.851                             : :Chapter 05
01:14:57.493                             : :Chapter 06
01:30:32.927                             : :Chapter 07
01:45:14.433                             : :Chapter 08
Скріншоти






Джерело: & eneyida.tv


 Трекер:    Зареєстрований   

Завантажити / скачати фільм українською



відео для новачків



 Зареєстрований:   2020-12-21 23:36
 Розмір:   6.29 GB 
 Оцінка фільму:   8.9/10 (Голосів: 74)
   
Інші релізи
   Гренландія / Greenland (2020) UHD Remux 4K 2160p HDR H.265 Ukr/Eng | Sub Eng RoMeL  15 / 0   59.2 GB   2020-12-22 12:07 
   Гренландія / Greenland (2020) antik_2008  21 / 0   1.94 GB   2020-12-21 22:18 
   Гренландія / Greenland (2020) Remux 1080p Ukr/Eng | Sub Eng antik_2008  7 / 1   21.32 GB   2020-12-21 20:27 
   Гренландія / Greenland (2020) AVC Ukr/Eng | Sub Eng staf777  15 / 0   2.54 GB   2020-12-19 22:21 
   Гренландія / Greenland (2020) 1080p Ukr/Eng | Sub Eng staf777  12 / 0   12.46 GB   2020-12-19 22:09 
don pedro 
Попереджень: 1
Попереджень: 1 


З нами з: 29.06.11
Востаннє: 16.01.21
Повідомлень: 18583

2020-11-14 01:26  
Несподівано хороший фільм.
madagaskar1 
VIP


З нами з: 08.05.14
Востаннє: 16.01.21
Повідомлень: 924

2020-11-14 15:55  
Чергова невдала спроба перевершити Післязавтра.
ну і наклепали лайна - 2012 - зіткнення з безоднею та армагеддон в одному флаконі, черговий шлак від дяді сема.
4/10 - і то за Морену.

bot 
робот


З нами з: 30.09.07
Востаннє: 26.05.05
Повідомлень: 26921

2020-11-15 02:53  
Тему перенесено з Анонси релізів до форуму Фільми в HD


eneyida.tv

munipet 
VIP


З нами з: 14.04.11
Востаннє: 16.01.21
Повідомлень: 335

2020-11-15 03:46  
Депресивний фільм !
Cerguk 
Свій


З нами з: 30.09.09
Востаннє: 16.01.21
Повідомлень: 112

2020-11-15 10:38  
А як звук,пристойна якість ?
General Franko-Safon 
Поважний учасник


З нами з: 03.07.20
Востаннє: 17.01.21
Повідомлень: 194

2020-11-15 11:45  
madagaskar1
Цей фільм в усьому вищий, аніж вбоге "Післязавтра".
munipet
Кінцівка ще дуже навіть оптимістична.

Trololo2017 
Новенький


З нами з: 16.12.17
Востаннє: 16.01.21
Повідомлень: 11

2020-11-16 14:59  
General Franko-Safon написано:
Цей фільм в усьому вищий, аніж вбоге "Післязавтра".


Не гони на Післязавтра!!!

Apple 
Попереджень: 1
Попереджень: 1 


З нами з: 13.07.08
Востаннє: 17.01.21
Повідомлень: 221

2020-11-17 02:21  
Люблю такі фільми, але інколи здається, що якби в них не було тупих дітей, то нічого з того б не вийшло Happy

Це вже дуже починає дратувати. От ніби все іде-іде, і замість чогось унікального - далі якась тупість зі сторони персонажа, якого грає дитина. Ааааааааааа....

Фільм і близько не Післязавтра. Тут більше про сім'ю, переживання і так далі, ніж про апокаліпсис.

В кінці сюрприз від тих, хто озвучував )))

Vitala9 
VIP


З нами з: 03.01.10
Востаннє: 09.12.20
Повідомлень: 262

2020-11-17 04:22  
"Говорить Київ" аахаах впав зі стулу ))))
Apple 
Попереджень: 1
Попереджень: 1 


З нами з: 13.07.08
Востаннє: 17.01.21
Повідомлень: 221

2020-11-17 04:26  
Vitala9
я от щойно разів 5 слухав в оригіналі, і не почув там такого Happy

nmm86r 
Новенький


З нами з: 25.02.15
Востаннє: 15.01.21
Повідомлень: 2

2020-11-17 13:24  
Гарне кіно, раджу до перегляду
sisak_i 
Частий відвідувач


З нами з: 01.05.08
Востаннє: 17.01.21
Повідомлень: 38

2020-11-17 20:26  
ну таке собі ...
[email protected] 
Новенький


З нами з: 26.06.17
Востаннє: 16.01.21
Повідомлень: 2

2020-11-19 22:12  
Дуже гарний фільм 9 з10
mutomba 
VIP


З нами з: 20.10.13
Востаннє: 15.01.21
Повідомлень: 367

2020-11-21 14:50  
Ох і накрутили...
Але загалом можна глянути раз. Дякую.

Василь Михайлюк 
Свій


З нами з: 01.04.19
Востаннє: 14.01.21
Повідомлень: 60

2020-11-22 17:42  
Обожнюю фільми-катастрофи.... стільки людей вмирає...
[email protected] 
Новенький


З нами з: 23.02.16
Востаннє: 16.01.21
Повідомлень: 5

2020-11-22 23:36  
Сценарій писала кухарка сидячи на карантині. Навіт я б написала б більш науково і правдоподібно. Шлак, одним словом. Краще б озвучили серіал Сини анархії, реально крута річ, ніж отаке лайно.

Додано через 8 хвилин 5 секунд:

madagaskar1
100%!

W3223W 
Свій


З нами з: 07.11.18
Востаннє: 15.01.21
Повідомлень: 90

2020-11-28 10:43  
Що мене здивувало в цьому фільмі - жодна людина не звертається до Бога перед неминучою смертью, адже коли розгортаються апокаліптичні події, це перше що спадає на думку.
Василь Михайлюк 
Свій


З нами з: 01.04.19
Востаннє: 14.01.21
Повідомлень: 60

2020-11-29 11:56  
забув що недодивився, йоли

Додано через 1 годину 20 хвилин 28 секунд:

ставлю 7 за те що головна героїня не Сара, не було кратерів на дорозі, і озвучили кінцівку зі змінами, ( там була москва але не Київ ),

Jogino 
Свій


З нами з: 21.04.13
Востаннє: 15.01.21
Повідомлень: 62

2020-12-10 23:51  
Захоплюючий сюжет, ненав'язлива пропаганда моральних цінностей, хороші спецефекти. Як на мене, то фільм заслуговує на 10 балів.
ultramuha 
Частий відвідувач


З нами з: 22.09.13
Востаннє: 16.01.21
Повідомлень: 35

2020-12-28 23:50  
Прекрасний фільм жанру "катастрофа". крутий сценарій, крута візуальна реалізація, тримає від початку і до кінця. На фоні фільмів другої половини 20 року - тверда дев'яточка!
qarty1 
VIP


З нами з: 01.11.09
Востаннє: 16.01.21
Повідомлень: 404

2021-01-11 22:24  
акторська гра якась дуже нікчемно зіграна жінкою і сином
Ваш часовий пояс: GMT + 2 Години

Нова тема   Відповісти