Ламаючи поверхню / Breaking Surface (2020) 1080p Eng | sub Ukr

Нові коментарі

Нова тема   Відповісти
Автор Повідомлення
killer2015 
Поважний учасник


З нами з: 30.01.15
Востаннє: 01.12.20
Повідомлень: 195

2020-11-13 13:02  
Ламаючи поверхню / Breaking Surface (2020) 1080p Eng | sub Ukr

Ламаючи поверхню / Breaking Surface (2020) 1080p Eng | sub Ukr


Жанр: Бойовик, трилер, драма
Країна: Швеція, Норвегія, Бельгія



Кінокомпанія: Way Feature Films, Umedia, Film i Skåne
Режисер: Йоахім Хеден
Актори: Муа Гаммель, Мадлен Мартін, Тріне Вігго, джитсу Джонатан Буітнік, Ремі Алашкар, Алессіо Баррето, Іма Дженні Халлберг, Лена Хоуп, Томас Хой, Елль Корс

Сюжет:
Дві сестри - любительки дайвінгу, зважилися на зимове занурення. Небезпечний захід закінчилося для героїнь непередбаченим поворотом. Неспокійний океан обрушив частину скелі і одна з дівчат виявилася в пастці на десятиметровій глибині. Напарниці доведеться докласти максимум зусиль для порятунку близької людини. Адже її життя залежить від правильних дій без секунди зволікання.


Тривалість: 01:18:07
Якість: 1080p
Відео:
кодек:
розмір кадру: 1920x1080
бітрейт: 4 982 кб/с

Аудіо:
мова: норвежська
переклад: оригінал
кодек: 5.1
бітрейт: 384 кб/с

Субтитри:
мова: українська
(власний переклад з російської)
тип: програмні (м'які)
формат: *.srt
МІ
General
Unique ID : 185472544273199266253027811756443764246 (0x8B88B672B43983A094BF5A3E767D0616)
Complete name : G:\Фільми\Breaking.Surface.2020.Nor..1080p\Breaking.Surface.2020.Nor..1080p.uk.
Format :
Format version : Version 4
File size : 2.93 GiB
Duration : 1 h 18 min
Overall bit rate mode : Variable
Overall bit rate : 5 368 kb/s
Movie name : Breaking Surface 2020 from ExKinoRay
Encoded date : UTC 2020-11-13 10:39:18
Writing application : v47.0.0 ('Black Flag') 64-bit
Writing library : libebml v1.3.10 + v1.5.2

Video
ID : 1
Format : AVC
Format/Info : Advanced Video Codec
Format profile : [email protected]
Format settings : CABAC / 3 Ref Frames
Format settings, CABAC : Yes
Format settings, Reference frames : 3 frames
Format settings, GOP : M=3, N=50
Codec ID : V_MPEG4/ISO/AVC
Duration : 1 h 18 min
Bit rate mode : Variable
Bit rate : 4 982 kb/s
Maximum bit rate : 7 200 kb/s
Width : 1 920 pixels
Height : 1 080 pixels
Display aspect ratio : 16:9
Frame rate mode : Constant
Frame rate : 25.000 FPS
Color space : YUV
Chroma subsampling : 4:2:0
Bit depth : 8 bits
Scan type : Progressive
Bits/(Pixel*Frame) : 0.096
Stream size : 2.72 GiB (93%)
Language : English
Default : Yes
Forced : No

Audio
ID : 2
Format : AC-3
Format/Info : Audio Coding 3
Commercial name : Dolby Digital
Codec ID : A_AC3
Duration : 1 h 18 min
Bit rate mode : Constant
Bit rate : 384 kb/s
Channel(s) : 6 channels
Channel layout : L R C LFE Ls Rs
Sampling rate : 48.0 kHz
Frame rate : 31.250 FPS (1536 SPF)
Compression mode : Lossy
Stream size : 215 MiB (7%)
Language : Norwegian Nynorsk
Service kind : Complete Main
Default : No
Forced : No
Скріншоти






Джерело:
Особиста оцінка: 10 - без зайвих вагань рекомендую всім!


 Трекер:    Зареєстрований   

Завантажити / скачати фільм українською



відео для новачків



 Зареєстрований:   2020-11-13 13:02
 Розмір:   2.93 GB 
 Оцінка фільму:   7.8/10 (Голосів: 4)
   
killer2015 
Поважний учасник


З нами з: 30.01.15
Востаннє: 01.12.20
Повідомлень: 195

2020-11-13 13:06  
Подяка пану KaPaTeJL6 за український постер. Фільм просто бомба.


PandaWCB 
Частий відвідувач


З нами з: 14.02.12
Востаннє: 30.11.20
Повідомлень: 36

2020-11-20 06:58  
Не дивіться це. Все погано. Я сам "дочь ахфіцера"(закреслено) дайвер. Там повна ахінея знята.
Звісно кіно можна вибачити певні умовності - машини не так взриваються, кулі героїв не беруть - це все ми розуміємо. Але тут вони сюжет на цьому будують і все тримається на тому, але показаний дебілізм і фантастика. А в стрічці жанр ми щось слова фантастика не бачимо.
Насправді - хвилин за 15-20 все б закінчилось для першої. Для другої з такими зануреннями все б з закінчилось ДКБ і в кращому випадку Паркінсон, в гіршому теж смерть. Хоча невідомо що тут краще і гірше.
Шлак повний.

Краще вже подивіться Sanctum. (2011) Там теж є певні косяки стосовно дайвінгу, але там воно не так випирає і вони не дуже великі, ну і фільм має певну реальну основу.

tpolit 
Попереджень: 1
Попереджень: 1 


З нами з: 10.01.15
Востаннє: 01.12.20
Повідомлень: 639

2020-11-20 17:52  
PandaWCB написано:
Там повна ахінея знята.

Дякую за відгук, завжди цікаво почути думки знавця своєї справи.
Але особисто я про дайвінг знаю нуль, тому мені фільм сподобався. Хоча навіть для мене багато вчинків головної героїні здалися трішки тупими, але то таке, спишемо на шок і стрес, та й сьогодні всі фільми такі. Раз подивитися можна, тримає в напрузі. Ще один плюс фільму - жодних проявів недоречної толерастії, навіть авто та саундтрек підібрані правильно.

Ваш часовий пояс: GMT + 2 Години

Нова тема   Відповісти