Темні матерії / Темні початки (Сезон 2, Серія 1-3) / His Dark Materials (Season 2, Episode 1-3) (2020) 1080p Ukr/Eng | Sub Eng

Нові коментарі

Нова тема   Відповісти
Автор Повідомлення
Anonymous 







2020-11-12 16:26  
Темні матерії / Темні початки (Сезон 2, Серія 1-3) / His Dark Materials (Season 2, Episode 1-3) (2020) 1080p Ukr/Eng | Sub Eng



Інші назви: Темні матерії / Піраньї тьми

Альтернативний постер
Темні матерії / Темні початки (Сезон 2, Серія 1-3) / His Dark Materials (Season 2, Episode 1-3) (2020) 1080p Ukr/Eng | Sub Eng


Жанр: пригодницький, драма, сімейний
Країна: США, Велика Британія



Кінокомпанія: HBO
Режисер: Джек Торн
Актори: Дафні Кін, Джеймс Мак-Евой, Кларк Питерс, Анна-Марі Дафф та інші

Сюжет:
Дівчинка Ліра Белаква живе в Оксфорді при одному з коледжів. Її дядько — могутній лорд Ізраель — здійснює часті експедиції на Північ. Під час чергової експедиції ректор коледжу віддає Ліру на виховання місіс Кольтер, яка відвозить дівчинку до Лондона. Коли Ліра розуміє, що місіс Кольтер не та, за кого себе видає, Ліра тікає від неї. Вона потрапляє до бродячих циган. Далі її шлях лежить на Північ, куди цигани відправляють загін з метою врятувати дітей, викрадених з усієї Англії страшними «гоблінами». Там Ліра знайомиться з відьмами, броньованими ведмедями і дізнається про плани лорда Ізраеля.


Тривалість: 1 серія: 60 хв. (цілком серій: 8)
Перелік серій
1. Місто сорок (Місто привидів)
2. Печера
3. Крадіжка
4.
5.
6.
7.
8.
Якість: 1080p
Відео:
кодек:
розмір кадру: 1920x960
бітрейт: ~8300 - 10000 кб/с

Аудіо # 1:
мова: українська
переклад: багатоголосий закадровий
кодек: 5.1
бітрейт: 384 кб/с

Аудіо # 2:
мова: англійська
переклад: оригінал
кодек: 5.1
бітрейт: 640 кб/с

Субтитри: (Forced) - 2-3 Серія
мова: українська
тип: програмні (м'які)
формат: *.srt

Субтитри:
мова: англійська
тип: програмні (м'які)
формат: *.srt
Info
Код:
General
Complete name                            : His Dark Materials (Season 2) (2020) 1080p\His.Dark.Materials.s02e01.
Format                                   :
Format version                           : Version 4
File size                                : 3.37 GiB
Duration                                 : 46 min 38 s
Overall bit rate                         : 10.3 Mb/s
Movie name                               : The City of Magpies
Encoded date                             : UTC 2020-11-12 14:14:17
Writing application                      : v30.1.0 ('Forever And More') 64-bit
Writing library                          : libebml v1.3.6 + v1.4.9
Cover                                    : Yes
Attachments                              : cover.jpg

Video
ID                                       : 1
Format                                   : AVC
Format/Info                              : Advanced Video Codec
Format profile                           : [email protected]
Format settings                          : CABAC / 4 Ref Frames
Format settings, CABAC                   : Yes
Format settings, RefFrames               : 4 frames
Codec ID                                 : V_MPEG4/ISO/AVC
Duration                                 : 46 min 38 s
Bit rate mode                            : Constant
Bit rate                                 : 9 305 kb/s
Nominal bit rate                         : 10 000 kb/s
Width                                    : 1 920 pixels
Height                                   : 960 pixels
Display aspect ratio                     : 2.000
Frame rate mode                          : Constant
Frame rate                               : 25.000 FPS
Color space                              : YUV
Chroma subsampling                       : 4:2:0
Bit depth                                : 8 bits
Scan type                                : Progressive
Bits/(Pixel*Frame)                       : 0.202
Stream size                              : 3.03 GiB (90%)
Language                                 : English
Default                                  : Yes
Forced                                   : No
Color range                              : Limited
Color primaries                          : BT.709
Transfer characteristics                 : BT.709
Matrix coefficients                      : BT.709

Audio #1
ID                                       : 2
Format                                   : AC-3
Format/Info                              : Audio Coding 3
Commercial name                          : Dolby Digital
Codec ID                                 : A_AC3
Duration                                 : 46 min 38 s
Bit rate mode                            : Constant
Bit rate                                 : 384 kb/s
Channel(s)                               : 6 channels
Channel layout                           : L R C LFE Ls Rs
Sampling rate                            : 48.0 kHz
Frame rate                               : 31.250 FPS (1536 SPF)
Bit depth                                : 16 bits
Compression mode                         : Lossy
Stream size                              : 128 MiB (4%)
Language                                 : Ukrainian
Service kind                             : Complete Main
Default                                  : Yes
Forced                                   : No

Audio #2
ID                                       : 3
Format                                   : AC-3
Format/Info                              : Audio Coding 3
Commercial name                          : Dolby Digital
Codec ID                                 : A_AC3
Duration                                 : 46 min 38 s
Bit rate mode                            : Constant
Bit rate                                 : 640 kb/s
Channel(s)                               : 6 channels
Channel layout                           : L R C LFE Ls Rs
Sampling rate                            : 48.0 kHz
Frame rate                               : 31.250 FPS (1536 SPF)
Bit depth                                : 16 bits
Compression mode                         : Lossy
Stream size                              : 214 MiB (6%)
Language                                 : English
Service kind                             : Complete Main
Default                                  : No
Forced                                   : No

Text
ID                                       : 4
Format                                   : UTF-8
Codec ID                                 : S_TEXT/UTF8
Codec ID/Info                            : UTF-8 Plain Text
Duration                                 : 45 min 1 s
Bit rate                                 : 48 b/s
Count of elements                        : 574
Stream size                              : 16.1 KiB (0%)
Title                                    : SDH
Language                                 : English
Default                                  : No
Forced                                   : No
Скріншоти










Джерело:
Особиста оцінка: 9 - давно не бачив настільки якісне кіно



Авторський реліз (завантажувати можна без реєстрації)
 Трекер:    Зареєстрований   

Завантажити / скачати серіал українською



відео для новачків



 Зареєстрований:   2020-11-28 20:09
 Розмір:   10.54 GB 
 Оцінка серіалу:   9.9/10 (Голосів: 10)
   
tilda4334 
VIP


З нами з: 15.08.14
Востаннє: 03.12.20
Повідомлень: 1182

2020-11-12 16:31  
без форсованих сабів?
Anonymous 







2020-11-12 16:33  
tilda4334 написано:
без форсованих сабів?

в ріпах тільки анг SDH

tilda4334 
VIP


З нами з: 15.08.14
Востаннє: 03.12.20
Повідомлень: 1182

2020-11-12 16:43  
Anonymous написано:
в ріпах тільки анг SDH

Тоді можна з першоджерела взяти.

Anonymous 







2020-11-12 17:12  
tilda4334 написано:
Тоді можна з першоджерела взяти.

Зараз завантажу подивлюся

Додано через 20 хвилин 25 секунд:

tilda4334 їх треба підгоняти
і субтитри так собі )
1
00:03:18,010 --> 00:03:20,520
Дафні Кін, Амір Вілсон

2
00:03:20,690 --> 00:03:23,160
Рут Вілсон

3
00:03:23,383 --> 00:03:25,880
Рута Ґедмінтас

4
00:03:29,017 --> 00:03:31,380
Джейд Анука

5
00:03:31,657 --> 00:03:34,160
Вілл Кін

6
00:03:34,590 --> 00:03:37,000
Шон Ґілдер

7
00:03:40,317 --> 00:03:42,580
Лі Мануель Міранда

8
00:03:43,157 --> 00:03:46,800
За мотивами романів Філіпа Пулмана

9
00:03:52,563 --> 00:03:55,060
Оператор – Девід Гіґґс

10
00:03:55,337 --> 00:03:57,763
Композитор – Лорн Белф

11
00:04:13,470 --> 00:04:16,383
Виконавчі продюсери – Джулі
Ґарднер, Раян Расмуссен, Джессіка Левiн

12
00:04:16,470 --> 00:04:19,276
Том Гупер, Дебора Форте,
Тобі Еммеріх, Керолайн Блеквуд

13
00:04:19,523 --> 00:04:21,996
Джоел Коллінс, Джеймі Чайлдс

14
00:04:22,049 --> 00:04:24,736
Філіп Пулман

15
00:04:24,843 --> 00:04:27,800
Джек Торн

16
00:04:30,437 --> 00:04:33,456
Ден МакКаллок

17
00:04:36,003 --> 00:04:38,960
Джейн Трентер

18
00:04:43,297 --> 00:04:47,683
ТЕМНІ МАТЕРІЇ

19
00:04:48,690 --> 00:04:51,300
Автор сценарію – Джек Торн

20
00:05:02,090 --> 00:05:04,560
Режисер – Джеймі Чайлдс

Anonymous 







2020-11-20 14:31  
+ 2 серія
Anonymous 







2020-11-28 20:10  
+ 3 серія
Ваш часовий пояс: GMT + 2 Години

Нова тема   Відповісти