Місячна база 8 (Сезон 1) / Moonbase 8 (Season 1) (2020) 1080p Ukr/Eng | sub Eng

Нові коментарі

Нова тема   Відповісти
Автор Повідомлення
Anonymous 







2020-11-12 14:43  
Місячна база 8 (Сезон 1) / Moonbase 8 (Season 1) (2020) 1080p Ukr/Eng | sub Eng

Місячна база 8 (Сезон 1) / Moonbase 8 (Season 1) (2020) 1080p Ukr/Eng | sub Eng


Жанр: комедія, фантастика
Країна: США



Кінокомпанія: A24, Abso Lutely Productions | Showtime
Режисер: Джонатан Крісел
Актори: Джон Крістофер Райлі, Тім Гайдекер, Фред Амрісен, Джошуа Девіс, Джо Абрагам, Майк Коннор Гейні, Фред Гранді, Тревіс Келсі, Адам Ламберт, Джанет Госкінс, Тіна Лендон, Томас Манн, Джордан Родрігез, Діандра Лайл

Сюжет:
Оригінальний, дотепний та пізнавальний комедійний серіал з елементами фантастики про непрості будні екіпажу космічної експедиції в період підготовки до польоту.

Отже, кар’єра космонавта NASA це не лише дослідницькі польоти на навколоземну орбіту та наукова праця. Це системна, щоденна кропітка підготовка до польотів. Це перебування на жорсткому карантині, в ізоляції від рідних та друзів. Це щоденне очікування завершення періоду нудної підготовки та початку реальної космічної експедиції...


Тривалість: 1 серія: ~ 25 хв. (цілком серій: 6)
Перелік серій
01 - Dry
02 - Rats
03 - Quarantine
04 - Visitors
05 - Move the Base
06 - Beef
Якість:
Відео:
кодек:
розмір кадру: 1920 x 1080
бітрейт: 9928 кб/с

Аудіо # 1:
мова: українська
переклад: багатоголосий закадровий
кодек: 5.1
бітрейт: 384 кб/с

Аудіо # 2:
мова: англійська
переклад: оригінал
кодек: 5.1
бітрейт: 640 кб/с

Джерело озвучення:
DniproFilm

Субтитри:
мова: українська [Forced]
тип: програмні (м'які)
формат: *.srt

Субтитри:
мова: англійська
тип: програмні (м'які)
формат: *.srt
Info
Код:
General
Unique ID                                : 126717419342622415220881356972137551970 (0x5F54E32214094971C26FD1AAB9E29862)
Complete name                            : Moonbase 8 S01E01 (2020) 1080p [Ukr_Eng] [Hurtom].
Format                                   :
Format version                           : Version 4
File size                                : 2.03 GiB
Duration                                 : 26 min 34 s
Overall bit rate                         : 11.0 Mb/s
Movie name                               : Місячна база 8 (Сезон 1, серія 1) (2020)
Encoded date                             : UTC 2020-11-11 23:23:48
Writing application                      : v50.0.0 ('Awakenings') 64-bit
Writing library                          : libebml v1.4.0 + v1.6.2
Cover                                    : Yes
Attachments                              : cover.jpg

Video
ID                                       : 1
Format                                   : AVC
Format/Info                              : Advanced Video Codec
Format profile                           : [email protected]
Format settings                          : CABAC / 4 Ref Frames
Format settings, CABAC                   : Yes
Format settings, Reference frames        : 4 frames
Codec ID                                 : V_MPEG4/ISO/AVC
Duration                                 : 26 min 34 s
Bit rate                                 : 9 928 kb/s
Width                                    : 1 920 pixels
Height                                   : 1 080 pixels
Display aspect ratio                     : 16:9
Frame rate mode                          : Constant
Frame rate                               : 23.976 (24000/1001) FPS
Color space                              : YUV
Chroma subsampling                       : 4:2:0
Bit depth                                : 8 bits
Scan type                                : Progressive
Bits/(Pixel*Frame)                       : 0.200
Stream size                              : 1.84 GiB (91%)
Default                                  : Yes
Forced                                   : No
Color range                              : Limited
Color primaries                          : BT.709
Transfer characteristics                 : BT.709
Matrix coefficients                      : BT.709

Audio #1
ID                                       : 2
Format                                   : AC-3
Format/Info                              : Audio Coding 3
Commercial name                          : Dolby Digital
Codec ID                                 : A_AC3
Duration                                 : 26 min 34 s
Bit rate mode                            : Constant
Bit rate                                 : 384 kb/s
Channel(s)                               : 6 channels
Channel layout                           : L R C LFE Ls Rs
Sampling rate                            : 48.0 kHz
Frame rate                               : 31.250 FPS (1536 SPF)
Compression mode                         : Lossy
Stream size                              : 73.0 MiB (4%)
Language                                 : Ukrainian
Service kind                             : Complete Main
Default                                  : Yes
Forced                                   : Yes

Audio #2
ID                                       : 3
Format                                   : E-AC-3
Format/Info                              : Enhanced AC-3
Commercial name                          : Dolby Digital Plus
Codec ID                                 : A_EAC3
Duration                                 : 26 min 34 s
Bit rate mode                            : Constant
Bit rate                                 : 640 kb/s
Channel(s)                               : 6 channels
Channel layout                           : L R C LFE Ls Rs
Sampling rate                            : 48.0 kHz
Frame rate                               : 31.250 FPS (1536 SPF)
Compression mode                         : Lossy
Delay relative to video                  : 19 ms
Stream size                              : 122 MiB (6%)
Language                                 : English
Service kind                             : Complete Main
Default                                  : No
Forced                                   : No

Text #1
ID                                       : 4
Format                                   : UTF-8
Codec ID                                 : S_TEXT/UTF8
Codec ID/Info                            : UTF-8 Plain Text
Duration                                 : 5 min 46 s
Bit rate                                 : 14 b/s
Count of elements                        : 12
Stream size                              : 642 Bytes (0%)
Title                                    : Forced
Language                                 : Ukrainian
Default                                  : Yes
Forced                                   : Yes

Text #2
ID                                       : 5
Format                                   : UTF-8
Codec ID                                 : S_TEXT/UTF8
Codec ID/Info                            : UTF-8 Plain Text
Duration                                 : 25 min 43 s
Bit rate                                 : 109 b/s
Count of elements                        : 668
Stream size                              : 20.7 KiB (0%)
Language                                 : English
Default                                  : No
Forced                                   : No

Скріншоти



Джерело:


Авторський реліз (завантажувати можна без реєстрації)
 Трекер:    Зареєстрований   

Завантажити / скачати серіал українською



відео для новачків



 Зареєстрований:   2020-11-12 14:43
 Розмір:   12 GB 
 Оцінка серіалу:   8.5/10 (Голосів: 13)
   
21jumpstreet 
VIP


З нами з: 03.07.12
Востаннє: 02.12.20
Повідомлень: 1471

2020-11-12 19:31  
Рейтинг аж плакати хочеться!
Джон Сі Райлі з Віллом Ферелом знищив свою кар'єру!

doslis 
Свій


З нами з: 15.02.16
Востаннє: 02.12.20
Повідомлень: 67

2020-11-15 18:43  
Мабуть таке знімають аби зменшити рівень безробіття у Голлівуді.
Ваш часовий пояс: GMT + 2 Години

Нова тема   Відповісти