Чемпіонат України 2020-2021 / Прем'єр Ліга / 9-й тур / Динамо (Київ) - Шахтар (Донецьк) / 2+2 (08.11.2020) DVBRip

Нові коментарі

Нова тема   Відповісти
Останній раз роздавалося antik_2008 (2020-11-26)
Автор Повідомлення
Anonymous 







2020-11-12 11:08  
Чемпіонат України 2020-2021 / Прем'єр Ліга / 9-й тур / Динамо (Київ) - Шахтар (Донецьк) / 2+2 (08.11.2020) DVBRip



Телеканал: 2+2
Опис: Чемпіонат України 2020-2021 / Прем'єр Ліга / 9-й тур / Динамо (Київ) - Шахтар (Донецьк) / 2+2 (08.11.2020)

8 листопада 2020 року, 17:00

НСК Олімпійський

Головний суддя Катерина Монзуль

Помічники судді Марина Стрілецька, Олександра Ардашева

Запасний суддя Анастасія Романюк
Тривалість:
01:44:00
Якість: DVBRip

Відео:
кодек:
розмір кадру: 720 x 576
бітрейт: ~2200 кб/с

Аудіо:
мова: українська
переклад: одноголосий закадровий (В. Зверов)
кодек: MP2 2.0
бітрейт: 192 кб/с
Склади:







Info
General
Complete name : Dynamo Kyev-Shaxtap 08.11.2020.
Format :
Format version : Version 2
File size : 1.78 GiB
Duration : 1 h 44 min
Overall bit rate : 2 444 kb/s
Writing application : Lavf54.63.104
Writing library : Lavf54.63.104

Video
ID : 1
Format : AVC
Format/Info : Advanced Video Codec
Format profile : [email protected]
Format settings : CABAC / 4 Ref Frames
Format settings, CABAC : Yes
Format settings, RefFrames : 4 frames
Codec ID : V_MPEG4/ISO/AVC
Duration : 1 h 44 min
Bit rate : 2 203 kb/s
Width : 720 pixels
Height : 576 pixels
Display aspect ratio : 16:9
Original display aspect ratio : 16:9
Frame rate mode : Constant
Frame rate : 25.000 FPS
Standard : PAL
Color space : YUV
Chroma subsampling : 4:2:0
Bit depth : 8 bits
Scan type : MBAFF
Scan type, store method : Interleaved fields
Scan order : Top Field First
Bits/(Pixel*Frame) : 0.213
Stream size : 1.60 GiB (90%)
Default : No
Forced : No
Color range : Limited
Color primaries : BT.601 PAL
Transfer characteristics : BT.470 System B/G
Matrix coefficients : BT.470 System B/G

Audio
ID : 2
Format : MPEG Audio
Format version : Version 1
Format profile : Layer 2
Codec ID : A_MPEG/L2
Codec ID/Hint : MP2
Duration : 1 h 44 min
Bit rate mode : Constant
Bit rate : 192 kb/s
Channel(s) : 2 channels
Sampling rate : 48.0 kHz
Compression mode : Lossy
Stream size : 143 MiB (8%)
Language : Ukrainian
Default : Yes
Forced : No
Скріншоти









Джерело:
Особиста оцінка: 4 - погане кіно


Золотий реліз (завантажене не впливає на рейтинг)
 Трекер:    Зареєстрований   

Завантажити / скачати торрент



відео для новачків



 Зареєстрований:   2020-11-12 11:08
 Розмір:   1.78 GB 
 Оцінка:   9/10 (Голосів: 1)
   
staf777 
Відео Гуртом - підтримка та поширення
Відео Гуртом - підтримка та поширення


З нами з: 16.11.16
Востаннє: 26.11.20
Повідомлень: 4498

2020-11-12 11:43  
Динамо дно

tilda4334 
Попереджень: 1
Попереджень: 1 


З нами з: 15.08.14
Востаннє: 25.11.20
Повідомлень: 1179

2020-11-12 12:17  
staf777 написано:
Динамо дно

Та й Шахтар, таких тухлих матчів між Шахтою і Динамо я давно не бачив, що з ними стало? Де бажання вигравати? Нехай ДК влаштовувала нічия, ще хоч якось можна зрозуміти, але чому Шахтар був таким інертним в першому таймі? Тупо перекати м'яча туди-сюди ніякою цікавості, якби не Сидорчук, то так і були б сухі нулі.

Та й взагалі рівень чемпіонату й далі падає, як я не люблю ностальгію, але тут з кожним новим класичним все більше хочеться повернути золоті часи де був сильний Металіст й Дніпро, де вони могли грати на рівні з Шахтою і ДК. Ех... довго ще чогось подібного доведеться чекати.

Ваш часовий пояс: GMT + 2 Години

Нова тема   Відповісти