Зоряний шлях: Фільм / Star Trek: The Motion Picture (1979) AVC Ukr/Eng

Нові коментарі

Нова тема   Відповісти
Автор Повідомлення
Цікава ідея 
VIP


З нами з: 26.12.11
Востаннє: 18.04.21
Повідомлень: 862

2020-11-10 00:30  
AVC | 1080p

Зоряний шлях: Фільм / Star Trek: The Motion Picture (1979) AVC Ukr/Eng


Зоряний шлях: Фільм / Star Trek: The Motion Picture (1979) AVC Ukr/Eng


Якщо вам сподобалося озвучення фільму,
то ви можете підтримати нас за посиланням
ТИЦЬ


Жанр: фантастика, пригодницький
Країна: США



Кінокомпанія / телеканал: Paramount Pictures, Century Associates, Robert Wise Productions
Режисери: Роберт Вайз
Актори: Вільям Шетнер, Леонард Німой, ДеФорест Келлі, Персіс Гамбатта

Сюжет:
З глибин космосу, через Клінгонскій сектор до Землі наближається непізнаний об'єкт просто гігантських розмірів з неясними, але, можливо, ворожими намірами, і Ентерпрайз виявляється єдиним кораблем, здатним встигнути вчасно дістатися до цього об'єкта для його дослідження та ліквідації потенційної небезпеки для Землі.


Перекладено та озвучено ТО "Цікава Ідея" на замовлення NemoInFire


Тривалість: 02:12:00

Якість: AVC
Відео:
кодек:
розмір кадру: 720 x 306
бітрейт: 1 412 Kb/s

Аудіо # 1:
мова: українська | "Цікава Ідея"
переклад: професійний багатоголосий закадровий
кодек: 5.1
бітрейт: 448 кб/с

Аудіо # 2:
мова: англійська
переклад: оригінал
кодек: MP3
бітрейт: 192 кб/с
Info
Код:
Format                                   :
Format version                           : Version 4
File size                                : 1.89 GiB
Duration                                 : 2 h 12 min
Overall bit rate                         : 2 055 kb/s
Movie name                               : Зоряний шлях: Фільм / Star Trek: The Motion Picture (1979) AVC [Ukr.Eng] [Цікава Ідея]
Encoded date                             : UTC 2020-11-09 21:20:11
Writing application                      : v50.0.0 ('Awakenings') 64-bit
Writing library                          : libebml v1.4.0 + v1.6.2
Cover                                    : Yes
Attachments                              : cover.jpg

Video
ID                                       : 1
Format                                   : MPEG-4 Visual
Format profile                           : [email protected]
Format settings, BVOP                    : No
Format settings, QPel                    : No
Format settings, GMC                     : No warppoints
Format settings, Matrix                  : Default (H.263)
Codec ID                                 : V_MS/VFW/FOURCC /
Codec ID/Hint                            :
Duration                                 : 2 h 12 min
Bit rate                                 : 1 412 kb/s
Width                                    : 720 pixels
Height                                   : 306 pixels
Display aspect ratio                     : 2.35:1
Frame rate mode                          : Constant
Frame rate                               : 23.976 FPS
Color space                              : YUV
Chroma subsampling                       : 4:2:0
Bit depth                                : 8 bits
Scan type                                : Progressive
Compression mode                         : Lossy
Bits/(Pixel*Frame)                       : 0.267
Stream size                              : 1.30 GiB (69%)
Writing library                          : Lavc58.35.100
Default                                  : Yes
Forced                                   : No

Audio #1
ID                                       : 2
Format                                   : AC-3
Format/Info                              : Audio Coding 3
Commercial name                          : Dolby Digital
Codec ID                                 : A_AC3
Duration                                 : 2 h 12 min
Bit rate mode                            : Constant
Bit rate                                 : 448 kb/s
Channel(s)                               : 6 channels
Channel layout                           : L R C LFE Ls Rs
Sampling rate                            : 48.0 kHz
Frame rate                               : 31.250 FPS (1536 SPF)
Compression mode                         : Lossy
Stream size                              : 423 MiB (22%)
Title                                    : Цікава Ідея
Language                                 : Ukrainian
Service kind                             : Complete Main
Default                                  : Yes
Forced                                   : No

Audio #2
ID                                       : 3
Format                                   : MPEG Audio
Format version                           : Version 1
Format profile                           : Layer 3
Format settings                          : Joint stereo / MS Stereo
Codec ID                                 : A_MPEG/L3
Codec ID/Hint                            : MP3
Duration                                 : 2 h 12 min
Bit rate mode                            : Constant
Bit rate                                 : 192 kb/s
Channel(s)                               : 2 channels
Sampling rate                            : 48.0 kHz
Frame rate                               : 41.667 FPS (1152 SPF)
Compression mode                         : Lossy
Stream size                              : 181 MiB (9%)
Title                                    : Original
Writing library                          : LAMEUU
Language                                 : English
Default                                  : No
Forced                                   : No
Скріншоти



Перекладено та озвучено творчим об'єднанням:


Авторський реліз (завантажувати можна без реєстрації)
 Трекер:    Зареєстрований   

Завантажити / скачати фільм українською



відео для новачків



 Зареєстрований:   2020-11-10 00:30
 Розмір:   1.89 GB 
 Оцінка фільму:   9.7/10 (Голосів: 22)
   
Інші релізи
21jumpstreet 
VIP


З нами з: 03.07.12
Востаннє: 18.04.21
Повідомлень: 1828

2020-11-10 00:46  
Останні дві години радують релізами: то Сімпсони в кіно з Дубляжем, тільки голос Гомера від пана Євгена Малухи, то перша повнометражна стрічка Startrek. Неймовірно. Щира дяка.
Цікава ідея 
VIP


З нами з: 26.12.11
Востаннє: 18.04.21
Повідомлень: 862

2020-11-10 01:45  
21jumpstreet
Раді старатися, сподіваємося на вашу підтримку!

21jumpstreet 
VIP


З нами з: 03.07.12
Востаннє: 18.04.21
Повідомлень: 1828

2020-11-10 21:07  
Цікава ідея
Хронометраж не правильний! 2:12:00
Чи очікувати другу частину? Скромна за бюджетом, касова по зборах.

Цікава ідея 
VIP


З нами з: 26.12.11
Востаннє: 18.04.21
Повідомлень: 862

2020-11-10 22:11  
21jumpstreet
Хронометраж поправили. Дякуємо.
На другу частину наразі не було у нас замовлення. Тому нічого не можемо сказати.

Майлюб 
Новенький


З нами з: 30.07.19
Востаннє: 18.04.21
Повідомлень: 10

2020-11-11 16:49  
Дякую! Ви МОЛОДЦІ!!!
hatak 
Поважний учасник


З нами з: 30.04.15
Востаннє: 18.04.21
Повідомлень: 187

2020-11-20 23:21  
Абсолютно не кривлячи душею і не лицемірячи, впевнено можу сказати, що переглянув — і просто відпочив душею. Практично не відчувається, що фільм 1979 року. Тільки слабкість візуальних ефектів нагадує про кінематограф минулих десятиліть, хоча вірю в те, що на той час то був прорив. У цьому фільмі є все, що і має бути: наукова(!) фантастика, центральна інтрига сюжету, альтернативні форми життя і технологій, дух пригод та відкриттів, морально-етичні дилеми і психологія людських взаємин. Не перестаю дивуватись на скільки дана стрічка, в хорошому розумінні, багата. Актори, які з часом стали легендарними. Також, обов’язково потрібно сказати фразу: “William Shatner — такий молодий!” і дуже круто його бачити. Навіть з повністю поголеною головою Persis Khambatta не втрачає своєї чарівності. Звуковий супровід (саундтрек) неодноразово номінований і неодноразово нагороджений — але мені місцями він чомусь здався якимось несерйозним: під окремі фрагменти уявляється як малолітній Маколей Калкін йде по тротуару з повними пакетами новорічних придбань... Але саме такий “Star Trek” хочеться переглядати знову і знову... А не дивитись як адміралка з капітанкою на хвилі феміністичного зашквару керують двома геями, які в лабораторії досліджують пересування тихоходки у мережі підпросторового міцелію...
Щиро вдячний за реліз справжнього “Star Trek” українською. Інколи трохи різали слух словосполучення типу “топливні проблеми” чи “доказувати логікою”, але перше — то не суттєво, а друге — чисто стилістика.

-Star-Lord- 
Відео Гуртом - підтримка та поширення
Відео Гуртом - підтримка та поширення


З нами з: 09.08.18
Востаннє: 18.04.21
Повідомлень: 2633

2021-01-12 03:29  
gig_Panas 
Відео Гуртом - запис з ТБ
Відео Гуртом - запис з ТБ


З нами з: 26.05.10
Востаннє: 18.04.21
Повідомлень: 754

2021-02-28 22:53  
альтернативний український постер

Ваш часовий пояс: GMT + 2 Години

Нова тема   Відповісти