Зоряний шлях: Фільм / Star Trek: The Motion Picture (1979) 1080p Ukr/Eng

Нові коментарі

Нова тема   Відповісти
Автор Повідомлення
Цікава ідея 
VIP


З нами з: 25.12.11
Востаннє: 06.03.21
Повідомлень: 823

2020-11-09 23:26  
AVC | 1080p

Зоряний шлях: Фільм / Star Trek: The Motion Picture (1979) 1080p Ukr/Eng


Зоряний шлях: Фільм / Star Trek: The Motion Picture (1979) 1080p Ukr/Eng


Якщо вам сподобалося озвучення фільму,
то ви можете підтримати нас за посиланням
ТИЦЬ


Жанр: фантастика, пригодницький
Країна: США



Кінокомпанія / телеканал: Paramount Pictures, Century Associates, Robert Wise Productions
Режисери: Роберт Вайз
Актори: Вільям Шетнер, Леонард Німой, ДеФорест Келлі, Персіс Гамбатта

Сюжет:
З глибин космосу, через Клінгонскій сектор до Землі наближається непізнаний об'єкт просто гігантських розмірів з неясними, але, можливо, ворожими намірами, і Ентерпрайз виявляється єдиним кораблем, здатним встигнути вчасно дістатися до цього об'єкта для його дослідження та ліквідації потенційної небезпеки для Землі.


Перекладено та озвучено ТО "Цікава Ідея" на замовлення NemoInFire


Тривалість: 02:12:00

Якість: 1080p
Відео:
кодек:
розмір кадру: 1920 x 818
бітрейт: 5 776 Kb/s

Аудіо # 1:
мова: українська | "Цікава Ідея"
переклад: професійний багатоголосий закадровий
кодек: 5.1
бітрейт: 448 кб/с

Аудіо # 2:
мова: англійська
переклад: оригінал
кодек: TrueHD 8.0
бітрейт: ~ 7 000 кб/с
Info
Код:
Format                                   :
Format version                           : Version 4
File size                                : 10.1 GiB
Duration                                 : 2 h 12 min
Overall bit rate mode                    : Variable
Overall bit rate                         : 11.0 Mb/s
Movie name                               : Зоряний шлях: Фільм / Star Trek: The Motion Picture (1979) 1080p [Ukr.Eng] [Цікава Ідея]
Encoded date                             : UTC 2020-11-09 21:14:33
Writing application                      : v50.0.0 ('Awakenings') 64-bit
Writing library                          : libebml v1.4.0 + v1.6.2
Cover                                    : Yes
Attachments                              : cover.jpg

Video
ID                                       : 1
Format                                   : AVC
Format/Info                              : Advanced Video Codec
Format profile                           : [email protected]
Format settings                          : CABAC / 5 Ref Frames
Format settings, CABAC                   : Yes
Format settings, Reference frames        : 5 frames
Codec ID                                 : V_MPEG4/ISO/AVC
Duration                                 : 2 h 12 min
Bit rate                                 : 5 776 kb/s
Width                                    : 1 920 pixels
Height                                   : 818 pixels
Display aspect ratio                     : 2.35:1
Frame rate mode                          : Constant
Frame rate                               : 23.976 (24000/1001) FPS
Color space                              : YUV
Chroma subsampling                       : 4:2:0
Bit depth                                : 8 bits
Scan type                                : Progressive
Bits/(Pixel*Frame)                       : 0.153
Stream size                              : 5.33 GiB (53%)
Writing library                          : core 160 r3000 33f9e14
Encoding settings                        : cabac=1 / ref=5 / deblock=1:-3:-3 / analyse=0x3:0x133 / me=umh / subme=10 / psy=1 / psy_rd=1.00:0.00 / mixed_ref=1 / me_range=24 / chroma_me=1 / trellis=2 / 8x8dct=1 / cqm=0 / deadzone=21,11 / fast_pskip=0 / chroma_qp_offset=-2 / threads=18 / lookahead_threads=3 / sliced_threads=0 / nr=0 / decimate=0 / interlaced=0 / bluray_compat=0 / constrained_intra=0 / bframes=8 / b_pyramid=2 / b_adapt=2 / b_bias=0 / direct=3 / weightb=1 / open_gop=0 / weightp=2 / keyint=250 / keyint_min=23 / scenecut=40 / intra_refresh=0 / rc=crf / mbtree=0 / crf=17.0 / qcomp=0.60 / qpmin=0 / qpmax=69 / qpstep=4 / ip_ratio=1.40 / pb_ratio=1.30 / aq=3:0.60
Language                                 : English
Default                                  : Yes
Forced                                   : No

Audio #1
ID                                       : 2
Format                                   : AC-3
Format/Info                              : Audio Coding 3
Commercial name                          : Dolby Digital
Codec ID                                 : A_AC3
Duration                                 : 2 h 12 min
Bit rate mode                            : Constant
Bit rate                                 : 448 kb/s
Channel(s)                               : 6 channels
Channel layout                           : L R C LFE Ls Rs
Sampling rate                            : 48.0 kHz
Frame rate                               : 31.250 FPS (1536 SPF)
Compression mode                         : Lossy
Stream size                              : 423 MiB (4%)
Title                                    : Цікава Ідея
Language                                 : Ukrainian
Service kind                             : Complete Main
Default                                  : Yes
Forced                                   : No

Audio #2
ID                                       : 3
Format                                   : MLP FBA
Format/Info                              : Meridian Lossless Packing FBA
Commercial name                          : Dolby TrueHD
Codec ID                                 : A_TRUEHD
Duration                                 : 2 h 12 min
Bit rate mode                            : Variable
Bit rate                                 : 4 677 kb/s
Maximum bit rate                         : 7 227 kb/s
Channel(s)                               : 8 channels
Channel layout                           : L R C LFE Ls Rs Lb Rb
Sampling rate                            : 48.0 kHz
Frame rate                               : 1 200.000 FPS (40 SPF)
Compression mode                         : Lossless
Stream size                              : 4.31 GiB (43%)
Title                                    : Original
Language                                 : English
Default                                  : No
Forced                                   : No
Скріншоти



Перекладено та озвучено творчим об'єднанням:


Авторський реліз (завантажувати можна без реєстрації)
 Трекер:    Зареєстрований   

Завантажити / скачати фільм українською



відео для новачків



 Зареєстрований:   2020-11-09 23:26
 Розмір:   10.12 GB 
 Оцінка фільму:   10/10 (Голосів: 12)
   
Інші релізи
GliBond 
Свій


З нами з: 06.10.16
Востаннє: 06.03.21
Повідомлень: 75

2020-11-14 16:41  
Прекрасний фільм з чудовим озвученням. Дякую.
loz_ko 
Частий відвідувач


З нами з: 29.07.08
Востаннє: 05.03.21
Повідомлень: 48

2020-12-25 17:28  
Не поганий фільм з урахуванням що знятий у 1979 році.
gig_Panas 
Відео Гуртом - запис з ТБ
Відео Гуртом - запис з ТБ


З нами з: 26.05.10
Востаннє: 06.03.21
Повідомлень: 645

2021-02-28 21:56  
український постер

Ваш часовий пояс: GMT + 2 Години

Нова тема   Відповісти