Сімпсони у кіно / The Simpsons Movie (2007) Remux 1080p 2xUkr/Eng | Sub Ukr/Eng

Нові коментарі

Нова тема   Відповісти
Автор Повідомлення
simpsonsua 
VIP


З нами з: 13.03.18
Востаннє: 23.01.21
Повідомлень: 354

2020-11-09 20:59  
AVC | 720p | 1080p | Remux 1080p

Сімпсони у кіно / The Simpsons Movie (2007) Remux 1080p 2xUkr/Eng | Sub Ukr/Eng


Сімпсони у кіно / The Simpsons Movie (2007) Remux 1080p 2xUkr/Eng | Sub Ukr/Eng


Якщо вам сподобалося доозвучення мультсеріалу,
то ви можете підтримати нас за посиланням
ТИЦЬ


Жанр: анімація, комедія, сімейний
Країна: США



Кінокомпанія: 20th Century Fox Film Corporation, Gracie Films
Режисер: Девід Сільверман
Актори/ролі озвучують: Ден Кастелланета, Джулі Кавнер, Ненсі Картрайт, Ярдлі Сміт, Хенк Азарія, Гаррі Шірер, Памела Хейден, Тресс МакНілл, Альберт Брукс, Карл Відерготт, Марсія Воллес, Рассі Тейлор, Меггі Росвел, Філіп Розенталь, Біллі Джо Армстронг

Сюжет:
Після того, як Гомер скинув відходи в озеро, Спрінгфілд оголосили карантинною зоною і накрили гігантським скляним куполом, а місцеві жителі почали полювання на Сімпсонів за те, що їх відрізали від решти світу...



Голос Гомер дубльовано студією сайту simpsonsua.tv



Тривалість: 01:26:44

Якість: Remux 1080p
Відео:
кодек:
розмір кадру: 1920 х 1080
бітрейт: 33 Mб/с

Аудіо # 1: (Голос Гомера - Євген Малуха)
мова: українська
озвучення: професійний дубльований (на основі оф. дубляжу)
кодек: 2.0
бітрейт: 256 кб/с

Аудіо # 2: (Голос Гомера - Микола Луценко)
мова: українська
переклад: професійний дубльований
кодек: 5.1
бітрейт: 384 кб/с

Аудіо # 3:
мова: англійська
переклад: оригінал
кодек: -HD MA 5.1
бітрейт: 3633 кб/с

Субтитри #1-2: [Full, Forced]
мова: українська
тип: програмні (м'які)
формат: *.srt

Субтитри #3-4: [Forced, Full]
мова: англійська
тип: програмні (м'які)
формат: *.srt

Info
Код:
Format                                   :
Format version                           : Version 4
File size                                : 22.6 GiB
Duration                                 : 1 h 26 min
Overall bit rate mode                    : Variable
Overall bit rate                         : 37.3 Mb/s
Movie name                               : Сімпсони у кіно / The Simpsons Movie (2007) Remux 1080p [Ukr.Eng sub.Ukr.Eng]
Encoded date                             : UTC 2020-11-09 17:13:43
Writing application                      : v50.0.0 ('Awakenings') 64-bit
Writing library                          : libebml v1.4.0 + v1.6.2
Cover                                    : Yes
Attachments                              : cover.jpg

Video
ID                                       : 1
Format                                   : AVC
Format/Info                              : Advanced Video Codec
Format profile                           : [email protected]
Format settings                          : CABAC / 4 Ref Frames
Format settings, CABAC                   : Yes
Format settings, Reference frames        : 4 frames
Codec ID                                 : V_MPEG4/ISO/AVC
Duration                                 : 1 h 26 min
Bit rate mode                            : Variable
Bit rate                                 : 33.0 Mb/s
Maximum bit rate                         : 35.5 Mb/s
Width                                    : 1 920 pixels
Height                                   : 1 080 pixels
Display aspect ratio                     : 16:9
Frame rate mode                          : Constant
Frame rate                               : 23.976 (24000/1001) FPS
Standard                                 : NTSC
Color space                              : YUV
Chroma subsampling                       : 4:2:0
Bit depth                                : 8 bits
Scan type                                : Progressive
Bits/(Pixel*Frame)                       : 0.665
Stream size                              : 20.0 GiB (89%)
Language                                 : English
Default                                  : Yes
Forced                                   : No
Color range                              : Limited
Color primaries                          : BT.709
Transfer characteristics                 : BT.709
Matrix coefficients                      : BT.709

Audio #1
ID                                       : 2
Format                                   : AC-3
Format/Info                              : Audio Coding 3
Commercial name                          : Dolby Digital
Codec ID                                 : A_AC3
Duration                                 : 1 h 26 min
Bit rate mode                            : Constant
Bit rate                                 : 256 kb/s
Channel(s)                               : 2 channels
Channel layout                           : L R
Sampling rate                            : 44.1 kHz
Frame rate                               : 28.711 FPS (1536 SPF)
Compression mode                         : Lossy
Stream size                              : 159 MiB (1%)
Title                                    : DUB (Гомер - Євген Малуха)
Language                                 : Ukrainian
Service kind                             : Complete Main
Default                                  : Yes
Forced                                   : No

Audio #2
ID                                       : 3
Format                                   : AC-3
Format/Info                              : Audio Coding 3
Commercial name                          : Dolby Digital
Codec ID                                 : A_AC3
Duration                                 : 1 h 26 min
Bit rate mode                            : Constant
Bit rate                                 : 384 kb/s
Channel(s)                               : 6 channels
Channel layout                           : L R C LFE Ls Rs
Sampling rate                            : 48.0 kHz
Frame rate                               : 31.250 FPS (1536 SPF)
Compression mode                         : Lossy
Stream size                              : 238 MiB (1%)
Title                                    : DUB (Гомер - Микола Луценко)
Language                                 : Ukrainian
Service kind                             : Complete Main
Default                                  : No
Forced                                   : No

Audio #3
ID                                       : 4
Format                                   : XLL
Format/Info                              : Digital Theater Systems
Commercial name                          : -HD Master Audio
Codec ID                                 : A_DTS
Duration                                 : 1 h 26 min
Bit rate mode                            : Variable
Bit rate                                 : 3 633 kb/s
Channel(s)                               : 6 channels
Channel layout                           : C L R Ls Rs LFE
Sampling rate                            : 48.0 kHz
Frame rate                               : 93.750 FPS (512 SPF)
Bit depth                                : 24 bits
Compression mode                         : Lossless
Stream size                              : 2.20 GiB (10%)
Title                                    : Original
Language                                 : English
Default                                  : No
Forced                                   : No

Text #1
ID                                       : 5
Format                                   : UTF-8
Codec ID                                 : S_TEXT/UTF8
Codec ID/Info                            : UTF-8 Plain Text
Duration                                 : 1 h 25 min
Bit rate                                 : 91 b/s
Count of elements                        : 1038
Stream size                              : 57.4 KiB (0%)
Title                                    : Full
Language                                 : Ukrainian
Default                                  : No
Forced                                   : No

Text #2
ID                                       : 6
Format                                   : UTF-8
Codec ID                                 : S_TEXT/UTF8
Codec ID/Info                            : UTF-8 Plain Text
Duration                                 : 1 h 11 min
Bit rate                                 : 2 b/s
Count of elements                        : 42
Stream size                              : 1.48 KiB (0%)
Title                                    : Forsed
Language                                 : Ukrainian
Default                                  : No
Forced                                   : No

Text #3
ID                                       : 7
Format                                   : UTF-8
Codec ID                                 : S_TEXT/UTF8
Codec ID/Info                            : UTF-8 Plain Text
Duration                                 : 1 h 25 min
Bit rate                                 : 52 b/s
Count of elements                        : 946
Stream size                              : 33.1 KiB (0%)
Title                                    : Full
Language                                 : English
Default                                  : No
Forced                                   : No

Text #4
ID                                       : 8
Format                                   : UTF-8
Codec ID                                 : S_TEXT/UTF8
Codec ID/Info                            : UTF-8 Plain Text
Duration                                 : 27 min 5 s
Bit rate                                 : 0 b/s
Count of elements                        : 3
Stream size                              : 88.0 Bytes (0%)
Title                                    : Forsed
Language                                 : English
Default                                  : No
Forced                                   : No
Скріншоти



Голос Гомера від студії сайту:


Авторський реліз (завантажувати можна без реєстрації)
 Трекер:    Зареєстрований   

Завантажити / скачати мультфільм українською



відео для новачків



 Зареєстрований:   2020-11-09 20:59
 Розмір:   22.61 GB 
 Оцінка мультфільму:   10/10 (Голосів: 5)
   
Ваш часовий пояс: GMT + 2 Години

Нова тема   Відповісти