Сімпсони у кіно / The Simpsons Movie (2007) 720p 2xUkr/Eng | Sub Ukr/Eng

Нові коментарі

Нова тема   Відповісти
Останній раз роздавалося astellar (2021-02-20)
Автор Повідомлення
simpsonsua 
VIP


З нами з: 13.03.18
Востаннє: 23.01.21
Повідомлень: 354

2020-11-09 20:58  
AVC | 720p | 1080p | Remux 1080p

Сімпсони у кіно / The Simpsons Movie (2007) 720p 2xUkr/Eng | Sub Ukr/Eng


Сімпсони у кіно / The Simpsons Movie (2007) 720p 2xUkr/Eng | Sub Ukr/Eng


Якщо вам сподобалося доозвучення мультсеріалу,
то ви можете підтримати нас за посиланням
ТИЦЬ


Жанр: анімація, комедія, сімейний
Країна: США



Кінокомпанія: 20th Century Fox Film Corporation, Gracie Films
Режисер: Девід Сільверман
Актори/ролі озвучують: Ден Кастелланета, Джулі Кавнер, Ненсі Картрайт, Ярдлі Сміт, Хенк Азарія, Гаррі Шірер, Памела Хейден, Тресс МакНілл, Альберт Брукс, Карл Відерготт, Марсія Воллес, Рассі Тейлор, Меггі Росвел, Філіп Розенталь, Біллі Джо Армстронг

Сюжет:
Після того, як Гомер скинув відходи в озеро, Спрінгфілд оголосили карантинною зоною і накрили гігантським скляним куполом, а місцеві жителі почали полювання на Сімпсонів за те, що їх відрізали від решти світу...



Голос Гомер дубльовано студією сайту simpsonsua.tv



Тривалість: 01:26:44

Якість: 720p
Відео:
кодек:
розмір кадру: 1280 x 532
бітрейт: 2489 кб/с

Аудіо # 1: (Голос Гомера - Євген Малуха)
мова: українська
озвучення: професійний дубльований (на основі оф. дубляжу)
кодек: 2.0
бітрейт: 256 кб/с

Аудіо # 2: (Голос Гомера - Микола Луценко)
мова: українська
переклад: професійний дубльований
кодек: 5.1
бітрейт: 384 кб/с

Аудіо # 3:
мова: англійська
переклад: оригінал
кодек: 5.1
бітрейт: 1509 кб/с

Субтитри #1-2: [Full, Forced]
мова: українська
тип: програмні (м'які)
формат: *.srt

Субтитри #3-4: [Forced, Full]
мова: англійська
тип: програмні (м'які)
формат: *.srt

Info
Код:
Format                                   :
Format version                           : Version 4
File size                                : 2.81 GiB
Duration                                 : 1 h 26 min
Overall bit rate                         : 4 642 kb/s
Movie name                               : Сімпсони у кіно / The Simpsons Movie (2007) AVC [2xUkr.Eng sub.Ukr.Eng]
Encoded date                             : UTC 2020-11-09 18:00:38
Writing application                      : v50.0.0 ('Awakenings') 64-bit
Writing library                          : libebml v1.4.0 + v1.6.2
Cover                                    : Yes
Attachments                              : cover.jpg / CronosPro-Bold.ttf / CronosPro-Semibold.ttf / CronosPro-SemiboldIt.ttf

Video
ID                                       : 1
Format                                   : AVC
Format/Info                              : Advanced Video Codec
Format profile                           : [email protected]
Format settings                          : CABAC / 10 Ref Frames
Format settings, CABAC                   : Yes
Format settings, Reference frames        : 10 frames
Codec ID                                 : V_MPEG4/ISO/AVC
Duration                                 : 1 h 26 min
Bit rate                                 : 2 489 kb/s
Width                                    : 1 280 pixels
Height                                   : 532 pixels
Display aspect ratio                     : 2.40:1
Frame rate mode                          : Constant
Frame rate                               : 23.976 FPS
Color space                              : YUV
Chroma subsampling                       : 4:2:0
Bit depth                                : 8 bits
Scan type                                : Progressive
Bits/(Pixel*Frame)                       : 0.152
Stream size                              : 1.51 GiB (54%)
Writing library                          : core 58 r763M 0949975
Encoding settings                        : cabac=1 / ref=10 / deblock=1:-3:-3 / analyse=0x3:0x133 / me=umh / subme=6 / me-prepass=0 / brdo=1 / mixed_ref=1 / me_range=16 / chroma_me=1 / trellis=0 / 8x8dct=1 / cqm=2 / deadzone=21,11 / chroma_qp_offset=0 / threads=3 / nr=0 / decimate=1 / mbaff=0 / bframes=5 / b_pyramid=1 / b_adapt=1 / b_bias=0 / direct=1 / wpredb=1 / bime=1 / keyint=250 / keyint_min=25 / scenecut=40(pre) / rc=2pass / bitrate=2489 / ratetol=1.0 / rceq='blurCplx^(1-qComp)' / qcomp=1.00 / qpmin=10 / qpmax=51 / qpstep=4 / cplxblur=20.0 / qblur=0.5 / ip_ratio=1.40 / pb_ratio=1.30 / aq=1:0.5:15.0
Language                                 : English
Default                                  : Yes
Forced                                   : No

Audio #1
ID                                       : 2
Format                                   : AC-3
Format/Info                              : Audio Coding 3
Commercial name                          : Dolby Digital
Codec ID                                 : A_AC3
Duration                                 : 1 h 26 min
Bit rate mode                            : Constant
Bit rate                                 : 256 kb/s
Channel(s)                               : 2 channels
Channel layout                           : L R
Sampling rate                            : 44.1 kHz
Frame rate                               : 28.711 FPS (1536 SPF)
Compression mode                         : Lossy
Stream size                              : 159 MiB (6%)
Title                                    : DUB (Гомер - Євген Малуха)
Language                                 : Ukrainian
Service kind                             : Complete Main
Default                                  : Yes
Forced                                   : No

Audio #2
ID                                       : 3
Format                                   : AC-3
Format/Info                              : Audio Coding 3
Commercial name                          : Dolby Digital
Codec ID                                 : A_AC3
Duration                                 : 1 h 26 min
Bit rate mode                            : Constant
Bit rate                                 : 384 kb/s
Channel(s)                               : 6 channels
Channel layout                           : L R C LFE Ls Rs
Sampling rate                            : 48.0 kHz
Frame rate                               : 31.250 FPS (1536 SPF)
Compression mode                         : Lossy
Stream size                              : 238 MiB (8%)
Title                                    : DUB (Гомер - Микола Луценко)
Language                                 : Ukrainian
Service kind                             : Complete Main
Default                                  : No
Forced                                   : No

Audio #3
ID                                       : 4
Format                                   :
Format/Info                              : Digital Theater Systems
Codec ID                                 : A_DTS
Duration                                 : 1 h 26 min
Bit rate mode                            : Constant
Bit rate                                 : 1 509 kb/s
Channel(s)                               : 6 channels
Channel layout                           : C L R Ls Rs LFE
Sampling rate                            : 48.0 kHz
Frame rate                               : 93.750 FPS (512 SPF)
Bit depth                                : 24 bits
Compression mode                         : Lossy
Stream size                              : 936 MiB (32%)
Title                                    : Original
Language                                 : English
Default                                  : No
Forced                                   : No

Text #1
ID                                       : 5
Format                                   : UTF-8
Codec ID                                 : S_TEXT/UTF8
Codec ID/Info                            : UTF-8 Plain Text
Duration                                 : 1 h 25 min
Bit rate                                 : 91 b/s
Count of elements                        : 1038
Stream size                              : 57.4 KiB (0%)
Title                                    : Full
Language                                 : Ukrainian
Default                                  : No
Forced                                   : No

Text #2
ID                                       : 6
Format                                   : UTF-8
Codec ID                                 : S_TEXT/UTF8
Codec ID/Info                            : UTF-8 Plain Text
Duration                                 : 1 h 11 min
Bit rate                                 : 2 b/s
Count of elements                        : 42
Stream size                              : 1.48 KiB (0%)
Title                                    : Forsed
Language                                 : Ukrainian
Default                                  : No
Forced                                   : No

Text #3
ID                                       : 7
Format                                   : UTF-8
Codec ID                                 : S_TEXT/UTF8
Codec ID/Info                            : UTF-8 Plain Text
Duration                                 : 1 h 25 min
Bit rate                                 : 52 b/s
Count of elements                        : 946
Stream size                              : 33.1 KiB (0%)
Title                                    : Full
Language                                 : English
Default                                  : No
Forced                                   : No

Text #4
ID                                       : 8
Format                                   : UTF-8
Codec ID                                 : S_TEXT/UTF8
Codec ID/Info                            : UTF-8 Plain Text
Duration                                 : 27 min 5 s
Bit rate                                 : 0 b/s
Count of elements                        : 3
Stream size                              : 88.0 Bytes (0%)
Title                                    : Forsed
Language                                 : English
Default                                  : No
Forced                                   : No
Скріншоти



Голос Гомера від студії сайту:


Авторський реліз (завантажувати можна без реєстрації)
 Трекер:    Зареєстрований   

Завантажити / скачати мультфільм українською



відео для новачків



 Зареєстрований:   2020-11-09 20:58
 Розмір:   2.81 GB 
 Оцінка мультфільму:   9.7/10 (Голосів: 6)
   
Ваш часовий пояс: GMT + 2 Години

Нова тема   Відповісти