Сімпсони у кіно / The Simpsons Movie (2007) AVC 2xUkr/Eng | Sub Ukr/Eng

Нові коментарі

Нова тема   Відповісти
Автор Повідомлення
simpsonsua 
VIP


З нами з: 13.03.18
Востаннє: 10.04.21
Повідомлень: 357

2020-11-09 21:53  
AVC | 720p | 1080p | Remux 1080p

Сімпсони у кіно / The Simpsons Movie (2007) AVC 2xUkr/Eng | Sub Ukr/Eng


Сімпсони у кіно / The Simpsons Movie (2007) AVC 2xUkr/Eng | Sub Ukr/Eng


Якщо вам сподобалося доозвучення мультсеріалу,
то ви можете підтримати нас за посиланням
ТИЦЬ


Жанр: анімація, комедія, сімейний
Країна: США



Кінокомпанія: 20th Century Fox Film Corporation, Gracie Films
Режисер: Девід Сільверман
Актори/ролі озвучують: Ден Кастелланета, Джулі Кавнер, Ненсі Картрайт, Ярдлі Сміт, Хенк Азарія, Гаррі Шірер, Памела Хейден, Тресс МакНілл, Альберт Брукс, Карл Відерготт, Марсія Воллес, Рассі Тейлор, Меггі Росвел, Філіп Розенталь, Біллі Джо Армстронг

Сюжет:
Після того, як Гомер скинув відходи в озеро, Спрінгфілд оголосили карантинною зоною і накрили гігантським скляним куполом, а місцеві жителі почали полювання на Сімпсонів за те, що їх відрізали від решти світу...



Голос Гомер дубльовано студією сайту simpsonsua.tv



Тривалість: 01:26:44

Якість: AVC
Відео:
кодек:
розмір кадру: 720 x 304
бітрейт: 1557 кб/с

Аудіо # 1: (Голос Гомера - Євген Малуха)
мова: українська
озвучення: професійний дубльований (на основі оф. дубляжу)
кодек: 2.0
бітрейт: 256 кб/с

Аудіо # 2: (Голос Гомера - Микола Луценко)
мова: українська
переклад: професійний дубльований
кодек: 5.1
бітрейт: 384 кб/с

Аудіо # 3:
мова: англійська
переклад: оригінал
кодек: 5.1
бітрейт: 448 кб/с

Субтитри #1-2: [Full, Forced]
мова: українська
тип: програмні (м'які)
формат: *.srt

Субтитри #3-4: [Forced, Full]
мова: англійська
тип: програмні (м'які)
формат: *.srt

Info
Код:
Format                                   :
Format version                           : Version 4
File size                                : 1.61 GiB
Duration                                 : 1 h 26 min
Overall bit rate                         : 2 649 kb/s
Movie name                               : Сімпсони у кіно / The Simpsons Movie (2007) AVC [2xUkr.Eng sub.Ukr.Eng]
Encoded date                             : UTC 2020-11-09 18:46:25
Writing application                      : v50.0.0 ('Awakenings') 64-bit
Writing library                          : libebml v1.4.0 + v1.6.2
Cover                                    : Yes
Attachments                              : cover.jpg / CronosPro-Bold.ttf / CronosPro-Semibold.ttf / CronosPro-SemiboldIt.ttf

Video
ID                                       : 1
Format                                   : MPEG-4 Visual
Format profile                           : Advanced [email protected]
Format settings                          : BVOP2
Format settings, BVOP                    : 2
Format settings, QPel                    : No
Format settings, GMC                     : No warppoints
Format settings, Matrix                  : Default (MPEG)
Codec ID                                 : V_MS/VFW/FOURCC /
Codec ID/Hint                            :
Duration                                 : 1 h 26 min
Bit rate                                 : 1 557 kb/s
Width                                    : 720 pixels
Height                                   : 304 pixels
Display aspect ratio                     : 2.35:1
Frame rate mode                          : Constant
Frame rate                               : 23.976 (23976/1000) FPS
Color space                              : YUV
Chroma subsampling                       : 4:2:0
Bit depth                                : 8 bits
Scan type                                : Progressive
Compression mode                         : Lossy
Bits/(Pixel*Frame)                       : 0.297
Stream size                              : 966 MiB (59%)
Writing library                          : 64
Default                                  : Yes
Forced                                   : No

Audio #1
ID                                       : 2
Format                                   : AC-3
Format/Info                              : Audio Coding 3
Commercial name                          : Dolby Digital
Codec ID                                 : A_AC3
Duration                                 : 1 h 26 min
Bit rate mode                            : Constant
Bit rate                                 : 256 kb/s
Channel(s)                               : 2 channels
Channel layout                           : L R
Sampling rate                            : 44.1 kHz
Frame rate                               : 28.711 FPS (1536 SPF)
Compression mode                         : Lossy
Stream size                              : 159 MiB (10%)
Title                                    : DUB (Гомер - Євген Малуха)
Language                                 : Ukrainian
Service kind                             : Complete Main
Default                                  : Yes
Forced                                   : No

Audio #2
ID                                       : 3
Format                                   : AC-3
Format/Info                              : Audio Coding 3
Commercial name                          : Dolby Digital
Codec ID                                 : A_AC3
Duration                                 : 1 h 26 min
Bit rate mode                            : Constant
Bit rate                                 : 384 kb/s
Channel(s)                               : 6 channels
Channel layout                           : L R C LFE Ls Rs
Sampling rate                            : 48.0 kHz
Frame rate                               : 31.250 FPS (1536 SPF)
Compression mode                         : Lossy
Stream size                              : 238 MiB (14%)
Title                                    : DUB (Гомер - Микола Луценко)
Language                                 : Ukrainian
Service kind                             : Complete Main
Default                                  : No
Forced                                   : No

Audio #3
ID                                       : 4
Format                                   : AC-3
Format/Info                              : Audio Coding 3
Commercial name                          : Dolby Digital
Codec ID                                 : A_AC3
Duration                                 : 1 h 26 min
Bit rate mode                            : Constant
Bit rate                                 : 448 kb/s
Channel(s)                               : 6 channels
Channel layout                           : L R C LFE Ls Rs
Sampling rate                            : 48.0 kHz
Frame rate                               : 31.250 FPS (1536 SPF)
Compression mode                         : Lossy
Delay relative to video                  : 200 ms
Stream size                              : 278 MiB (17%)
Title                                    : Original
Language                                 : English
Service kind                             : Complete Main
Default                                  : No
Forced                                   : No

Text #1
ID                                       : 5
Format                                   : UTF-8
Codec ID                                 : S_TEXT/UTF8
Codec ID/Info                            : UTF-8 Plain Text
Duration                                 : 1 h 25 min
Bit rate                                 : 91 b/s
Count of elements                        : 1038
Stream size                              : 57.4 KiB (0%)
Title                                    : Full
Language                                 : Ukrainian
Default                                  : No
Forced                                   : No

Text #2
ID                                       : 6
Format                                   : UTF-8
Codec ID                                 : S_TEXT/UTF8
Codec ID/Info                            : UTF-8 Plain Text
Duration                                 : 1 h 11 min
Bit rate                                 : 2 b/s
Count of elements                        : 42
Stream size                              : 1.48 KiB (0%)
Title                                    : Forsed
Language                                 : Ukrainian
Default                                  : No
Forced                                   : No

Text #3
ID                                       : 7
Format                                   : UTF-8
Codec ID                                 : S_TEXT/UTF8
Codec ID/Info                            : UTF-8 Plain Text
Duration                                 : 1 h 25 min
Bit rate                                 : 52 b/s
Count of elements                        : 946
Stream size                              : 33.1 KiB (0%)
Title                                    : Full
Language                                 : English
Default                                  : No
Forced                                   : No

Text #4
ID                                       : 8
Format                                   : UTF-8
Codec ID                                 : S_TEXT/UTF8
Codec ID/Info                            : UTF-8 Plain Text
Duration                                 : 27 min 5 s
Bit rate                                 : 0 b/s
Count of elements                        : 3
Stream size                              : 88.0 Bytes (0%)
Title                                    : Forsed
Language                                 : English
Default                                  : No
Forced                                   : No
Скріншоти



Голос Гомера від студії сайту:


Авторський реліз (завантажувати можна без реєстрації)
 Трекер:    Зареєстрований   

Завантажити / скачати мультфільм українською



відео для новачків



 Зареєстрований:   2020-11-09 21:53
 Розмір:   1.61 GB 
 Оцінка мультфільму:   10/10 (Голосів: 14)
   
21jumpstreet 
VIP


З нами з: 03.07.12
Востаннє: 14.04.21
Повідомлень: 1810

2020-11-09 22:21  
Крутезно! Через 13 років голос Гомера справедливо змінено і продубльовано паном Євгеном!
simpsonsua 
VIP


З нами з: 13.03.18
Востаннє: 10.04.21
Повідомлень: 357

2020-11-09 22:30  
21jumpstreet написано:
Крутезно! Через 13 років голос Гомера справедливо змінено і продубльовано паном Євгеном!

Нас давно і неодноразово це просили зробити, тому насолоджуйтесь😘

tilda4334 
Відео Гуртом - фільмокрай
Відео Гуртом - фільмокрай


З нами з: 15.08.14
Востаннє: 14.04.21
Повідомлень: 1535

2020-11-09 22:34  
simpsonsua
Оце так сюрприз, дякую)

simpsonsua 
VIP


З нами з: 13.03.18
Востаннє: 10.04.21
Повідомлень: 357

2020-11-09 22:44  
tilda4334 написано:
Оце так сюрприз, дякую)

Раді старатися! Гріх було не зробити таке)

21jumpstreet 
VIP


З нами з: 03.07.12
Востаннє: 14.04.21
Повідомлень: 1810

2020-11-09 22:46  
simpsonsua
А кількість голосів? Цифра яка?

simpsonsua 
VIP


З нами з: 13.03.18
Востаннє: 10.04.21
Повідомлень: 357

2020-11-09 22:47  
21jumpstreet
Ми замінили лише голос Гомера на канонічний.

21jumpstreet 
VIP


З нами з: 03.07.12
Востаннє: 14.04.21
Повідомлень: 1810

2020-11-09 22:49  
simpsonsua
Зрозумів, щира дяка за інформацію!

Еніссі 
Новенький


З нами з: 09.04.16
Востаннє: 16.11.20
Повідомлень: 2

2020-11-16 00:56  
Оце так подарунок, обожнюю озвучки Малухи.
Спасибі!!

От би ще переозвучити Кенана та Кела голосом Малухи, багато серій з дуже поганих записів.

21jumpstreet 
VIP


З нами з: 03.07.12
Востаннє: 14.04.21
Повідомлень: 1810

2020-12-05 23:17  
Оригінальна доріжка з розсинхроном.
Ваш часовий пояс: GMT + 2 Години

Нова тема   Відповісти