Білл і Тед / Bill & Ted Face the Music (2020) Remux 1080p Ukr/Eng | Sub Eng

Нові коментарі

Нова тема   Відповісти
Автор Повідомлення
Anonymous 







2020-11-09 00:46  
Білл і Тед / Bill & Ted Face the Music (2020) Remux 1080p Ukr/Eng | Sub Eng

Білл і Тед / Bill & Ted Face the Music (2020) Remux 1080p Ukr/Eng | Sub Eng


Жанр: комедія
Країна: США, Канада, Італія



Кінокомпанія: TinRes Entertainment, Orion Pictures
Режисер: Дін Парізо
Актори: Кіану Рівз, Алекс Вінтер, Крістен Шаал, Самара Вівінг, Бригіта Ланді-Пейн, Вільям Седлер, Ентоні Керріган, Ерінн Хейс, Джейма Мейс, Хел Лендон мл.

Сюжет:
Білл і Тед почули пророцтво, що їх рок-н-рол врятує всесвіт від загибелі. Однак пройшло вже багато років, але ту саму пісню герої так і не написали. Крім того, їх шлюби розвалюються, а власні діти зляться на татусів. Раптом прибулець прибуває з майбутнього і нагадує, що якщо Білл і Тед не видадуть свій хіт, то всесвіту буде загрожувати неймовірна небезпека. Приятелі відправляються в нову подорож по різним епохам в пошуках натхнення. Компанію їм складуть їх дочки, кілька історичних особистостей і легендарних музикантів.


Тривалість: 01:31:55
Якість: Blu-Ray Remux 1080p
Відео:
кодек:
розмір кадру: 1920x1080
бітрейт: 33800 кб/с

Аудіо # 1:
мова: українська
переклад: професійний дубльований
кодек: 2.0 [stereo]
бітрейт: 192 кб/с

Аудіо # 2:
мова: англійська
переклад: оригінал
кодек: -HD MA 5.1
бітрейт: 3252 кб/с

Субтитри # 1-2: (Full, SDH)
мова: англійська
тип: програмні (м'які)
формат: *.srt

Збережено оригінальні розділи, як на Blu-ray
Info
General
Complete name : Bill & Ted Face the Music (2020) Remux 1080p [ukr, eng] [Hurtom].
Format :
Format version : Version 4
File size : 23.9 GiB
Duration : 1 h 31 min
Overall bit rate mode : Variable
Overall bit rate : 37.3 Mb/s
Movie name : Білл і Тед / Bill & Ted Face the Music (2020)
Encoded date : UTC 2020-11-08 21:05:49
Writing application : v30.1.0 ('Forever And More') 64-bit
Writing library : libebml v1.3.6 + v1.4.9
Cover : Yes
Attachments : cover.jpg

Video
ID : 1
Format : AVC
Format/Info : Advanced Video Codec
Format profile : [email protected]
Format settings : CABAC / 2 Ref Frames
Format settings, CABAC : Yes
Format settings, RefFrames : 2 frames
Format settings, GOP : M=1, N=10
Codec ID : V_MPEG4/ISO/AVC
Duration : 1 h 31 min
Bit rate mode : Variable
Bit rate : 33.8 Mb/s
Width : 1 920 pixels
Height : 1 080 pixels
Display aspect ratio : 16:9
Frame rate mode : Constant
Frame rate : 23.976 (24000/1001) FPS
Color space : YUV
Chroma subsampling : 4:2:0
Bit depth : 8 bits
Scan type : Progressive
Bits/(Pixel*Frame) : 0.680
Stream size : 21.7 GiB (91%)
Default : Yes
Forced : No

Audio #1
ID : 2
Format : AC-3
Format/Info : Audio Coding 3
Commercial name : Dolby Digital
Codec ID : A_AC3
Duration : 1 h 31 min
Bit rate mode : Constant
Bit rate : 192 kb/s
Channel(s) : 2 channels
Channel layout : L R
Sampling rate : 48.0 kHz
Frame rate : 31.250 FPS (1536 SPF)
Bit depth : 16 bits
Compression mode : Lossy
Stream size : 126 MiB (1%)
Title : 2.0 | 192
Language : Ukrainian
Service kind : Complete Main
Default : Yes
Forced : No

Audio #2
ID : 3
Format : XLL
Format/Info : Digital Theater Systems
Commercial name : -HD Master Audio
Codec ID : A_DTS
Duration : 1 h 31 min
Bit rate mode : Variable
Bit rate : 3 252 kb/s
Channel(s) : 6 channels
Channel layout : C L R Ls Rs LFE
Sampling rate : 48.0 kHz
Frame rate : 93.750 FPS (512 SPF)
Bit depth : 24 bits
Compression mode : Lossless
Stream size : 2.09 GiB (9%)
Title : -HD MA 5.1 | 3252
Language : English
Default : No
Forced : No

Text #1
ID : 4
Format : UTF-8
Codec ID : S_TEXT/UTF8
Codec ID/Info : UTF-8 Plain Text
Duration : 1 h 31 min
Bit rate : 63 b/s
Count of elements : 1583
Stream size : 42.1 KiB (0%)
Title : Full
Language : English
Default : No
Forced : No

Text #2
ID : 5
Format : UTF-8
Codec ID : S_TEXT/UTF8
Codec ID/Info : UTF-8 Plain Text
Duration : 1 h 31 min
Bit rate : 68 b/s
Count of elements : 1733
Stream size : 45.4 KiB (0%)
Title : SDH
Language : English
Default : No
Forced : No

Menu
00:00:00.000 : en:Studio Logo
00:00:32.958 : en:Prologue
00:01:56.709 : en:Wedding
00:06:32.083 : en:Couples' Therapy
00:09:52.917 : en:Respecting the Situation
00:20:54.166 : en:Plagiarizer
00:25:49.250 : en:Putting Plans in Place
00:30:04.500 : en:Assembling a Band
00:41:56.542 : en:More Members
00:47:08.958 : en:Hell
00:51:41.917 : en:Face the Music
00:59:04.207 : en:The Last Member
01:10:00.083 : en:The Prophesy
01:24:14.708 : en:End Credits
01:29:37.708 : en:One Last Thing to Do
Скріншоти


Джерело: &
Особиста оцінка: 0 - не дивився


Золотий реліз (завантажене не впливає на рейтинг)
 Трекер:    Зареєстрований   

Завантажити / скачати фільм українською



відео для новачків



 Зареєстрований:   2021-01-13 15:33
 Розмір:   23.93 GB 
 Оцінка фільму:   8.4/10 (Голосів: 9)
   
Інші релізи
doslis 
Свій


З нами з: 15.02.16
Востаннє: 16.01.21
Повідомлень: 76

2020-12-16 21:17  
якби мені було б 16 років і це був 1988 рік...але не в 2020-му, хіба що для фанів, для дуууже великих фанів
Anonymous 







2021-01-13 15:34  
Заміна аудіо на якісніше. 
Ваш часовий пояс: GMT + 2 Години

Нова тема   Відповісти