Gamardah Fungus - 10 Years Compilation: Singles, Rarities, Remixes (2020) [] | Ambient / Dark Jazz

Нові коментарі

Нова тема   Відповісти
Автор Повідомлення
kolpavel 
VIP


З нами з: 04.05.14
Востаннє: 25.01.21
Повідомлень: 1366

2020-11-08 21:32  
Gamardah Fungus - 10 Years Compilation: Singles, Rarities, Remixes (2020) [] | Ambient / Dark Jazz

Gamardah Fungus - 10 Years Compilation: Singles, Rarities, Remixes (2020) [] | Ambient / Dark Jazz


Стиль: Ambient / Dark Jazz.
Країна, місто: Україна, Дніпро.
Видавець: гурт
Виконавці:
Ігор Ялiвець - синтезатор, труба, канглінг.
Сергiй Ягода - гітара, бас, ефекти.
Пісні:
    01 - Zen Garden (00:05:20)
    02 - Human or Not (00:06:30)
    03 - Fetus Crying (00:05:39)
    04 - Clean Eyes of My Childhood (00:06:40)
    05 - Sea Salt (00:08:51)
    06 - Forester Blues (00:07:44)
    07 - Kyiv Underground (00:13:56)
    08 - Burning Church of Eternal Sorrow (Submatukana Remix) (00:04:28)
    09 - Advocatus Diaboli (Submatukana Remix) (00:05:04)
    10 - Opium (Submatukana Remix) (00:04:30)

Тривалість: 01:08:44
Мова: iнструментальнi композицiї, 9 - росiйська.
Аудіо-кодек:
Бітрейт: 652-1052кб/с
Джерело: трекер
Додаткова інформація:
лог DRM:
foobar2000 1.4.2 / Dynamic Range Meter 1.1.1
log date: 2020-10-27 19:41:55

--------------------------------------------------------------------------------
Analyzed: Gamardah Fungus, Monocube / 10 Years Compilation: Singles, Rarities, Remixes (1)
Gamardah Fungus / 10 Years Compilation: Singles, Rarities, Remixes (2-10)
--------------------------------------------------------------------------------

DR Peak RMS Duration Track
--------------------------------------------------------------------------------
DR8 -0.26 dB -10.59 dB 8:52 05-Sea Salt
DR9 -1.21 dB -12.35 dB 5:20 01-Zen Garden
DR6 0.00 dB -7.67 dB 6:30 02-Human or Not
DR6 0.00 dB -8.43 dB 5:40 03-Fetus Crying
DR5 -0.10 dB -7.79 dB 6:40 04-Clean Eyes of My Childhood
DR10 -0.28 dB -13.59 dB 7:45 06-Forester Blues
DR8 -1.02 dB -11.06 dB 13:56 07-Kyiv Underground
DR6 -0.43 dB -7.50 dB 4:28 08-Burning Church of Eternal Sorrow (Submatukana Remix)
DR7 -0.43 dB -8.38 dB 5:04 09-Advocatus Diaboli (Submatukana Remix)
DR7 -0.22 dB -7.74 dB 4:30 10-Opium (Submatukana Remix)
--------------------------------------------------------------------------------

Number of tracks: 10
Official DR value: DR7

Samplerate: 44100 Hz
Channels: 2
Bits per sample: 16
Bitrate: 1016 kbps
Codec:
================================================================================
лог якостi:
-----------------------

DON'T MODIFY THIS FILE

-----------------------

PERFORMER: auCDtect Task Manager, ver. 1.6.0 RC1 build 1.6.0.1
Copyright (c) 2008-2010 y-soft. All rights reserved
http://y-soft.org

ANALYZER: auCDtect: CD records authenticity detector, version 0.8.2
Copyright (c) 2004 Oleg Berngardt. All rights reserved.
Copyright (c) 2004 Alexander Djourik. All rights reserved.

FILE: 10 - Opium (Submatukana Remix).
Size: 34738792 Hash: 03E398764FE60BF2AF221C37697B3914 Accuracy: -m40
Conclusion: MPEG 100%
Signature: 8C2F97CD0EA781B7951EC9806B78420199F03FCA
FILE: 09 - Advocatus Diaboli (Submatukana Remix).
Size: 40670333 Hash: 822C671B5B7979ECDF3846F2775F8AB6 Accuracy: -m40
Conclusion: CDDA 100%
Signature: 610EB5EC867FA54A53B180BE6EC7834010F5F09E
FILE: 08 - Burning Church of Eternal Sorrow (Submatukana Remix).
Size: 33806333 Hash: DE8E99A7B01EF50DBE5D4E73E2C3D202 Accuracy: -m40
Conclusion: CDDA 100%
Signature: BA7F1B140C5B628EF9FE290A6B9C179046C02FF4
FILE: 07 - Kyiv Underground.
Size: 68593491 Hash: 0656C7A31F5942DD19F409E7287A636B Accuracy: -m40
Conclusion: CDDA 76%
Signature: FD20A4296ABE2B8397B89A28D1FE7FBCA454CCD9
FILE: 06 - Forester Blues.
Size: 48513426 Hash: CFC207B068E56BC52A9BEC36FD0C8F90 Accuracy: -m40
Conclusion: ???
Signature: 76188E12E5F7953AB8695DA6D0E6CC69FCADDC9C
FILE: 05 - Sea Salt.
Size: 46125293 Hash: F700D95EFB4FE4A8EAC3783FC342F9A3 Accuracy: -m40
Conclusion: CDDA 100%
Signature: 07105FC04566939AFFF06D4032588B6EA27D334F
FILE: 04 - Clean Eyes of My Childhood.
Size: 38541644 Hash: 76CDD9106806711D38C5DB5E7EAE9794 Accuracy: -m40
Conclusion: CDDA 100%
Signature: EA03EB2566D3516FDA7389DD6C1D522BF60D9C78
FILE: 03 - Fetus Crying.
Size: 36369306 Hash: 0C16BF5CA28DAC96C0459C002484B83B Accuracy: -m40
Conclusion: CDDA 100%
Signature: BEE6195655994AE0E0C38A5E2753133FA0AE7C5C
FILE: 02 - Human or Not.
Size: 32999181 Hash: 951C29E539095390F908C4F746786D31 Accuracy: -m40
Conclusion: CDDA 43%
Signature: 39BBE29AC11E0FBEAB13AEE398E4C350FB71956F
FILE: 01 - Zen Garden.
Size: 30340913 Hash: 3C3D2B384E99726534D0677809AAF21A Accuracy: -m40
Conclusion: CDDA 100%
Signature: 4C26E469E267868DAC53EEAF933204E9E5FB69B1


"Ця збірка складається з десяти треків, сім з яких були записані протягом багатьох років для цифрових випусків різних лейблів, але ніколи не розміщувались на фізичних носіях. Деякі з цих треків отримали новий мастеринг або мікшування. Інші залишились цілими. Крім того, до цієї збірки входять три абсолютно нові барабанні та басові ремікси з нашого дружнього проекту Submatukana" (Gamardah Fungus).

1. "Hecatombe" compilation, 2020
2. "Metempsychosis" compilation, 2020
3. "Robustfellow Sampler 2019" sampler, 2019
4. "I Do Not Want This - Chapter 2 (OST)" OST, 2019
5. "Hidden Vibes Vol. 6" compilation, 2014
6. "Hidden Vibes Vol. 1" compilation, 2011
7. "IN_OUT (Vol.1)" compilation, 2011
8-10. Remixes by Submatukana.

Якщо Ви справді бажаєте підтримати українське - після прослуховування, якщо музика вам сподобалась, придбайте ліцензійний диск. Підтримаймо вітчизняних виконавців!


Срібний реліз (на рейтинг впливає 50% завантаженого)
 Трекер:    Зареєстрований   

Завантажити / скачати українську музику



відео для новачків



 Зареєстрований:   2020-11-08 21:32
 Розмір:   389 MB 
 Оцінка музики:   7.8/10 (Голосів: 4)
   
Ваш часовий пояс: GMT + 2 Години

Нова тема   Відповісти