Мандалорець (Сезон 2 Серія 1-5) / The Mandalorian (Season 2 Episode 1-5) (2020) UHD 2160p 4K HDR H.265 3xUkr/Eng | Sub Ukr/Eng

Нові коментарі

Нова тема   Відповісти
Автор Повідомлення
RoMeL 
Відео Гуртом - підтримка та поширення
Відео Гуртом - підтримка та поширення


З нами з: 09.07.08
Востаннє: 01.12.20
Повідомлень: 237

2020-11-08 19:45  
Мандалорець (Сезон 2 Серія 1-5) / The Mandalorian (Season 2 Episode 1-5) (2020) UHD 2160p 4K HDR H.265 3xUkr/Eng | Sub Ukr/Eng



Жанр: вестерн, пригодницький, фантастика, екшн
Країна: США



Кінокомпанія: Disney
Автор ідеї: Джон Фавро, Дейв Фіоні
Актори: Педро Паскаль, Карл Везерс та ін.

Сюжет:
Дія серіалу розгортається через кілька років після падіння Імперії, але до приходу до влади Першого Ордена. У центрі сюжету опиниться мисливець за головами, якому доведеться виживати на краю галактики.
Мандалорці - це войовничий народ, який складається з розумних істот різних рас. У центрі їх світогляду - війна, а також слава, яку вона приносить. Мандалорці вважаються найкращими воїнами галактики, тому багато хто з них стають найманцями.


Тривалість: 1 серія: 30 - 50 хв. (цілком серій: 8)
Перелік серій
Частина 9: Маршал,
Частина 10: Пасажир,
Частина 11
Частина 12
Частина 13
Частина 14
Частина 15
Частина 16
Якість: 4K 2160p HDR H.265
Відео:
кодек: H.265 (HEVC)
розмір кадру: 3840 х 1920
бітрейт: ~22.1 Мбіт/сек (залежить від серії)
бітова глибина: 10 біт
кольоровий простір: BT.2020 (HDR)

Увага! Перед завантаженням переконайтесь, що ваш пристрій відтворення (та/або ПЗ) підтримує H.265 (HEVC)

Аудіо # 1:
мова: українська | Т.С. Cтруґачка
переклад: багатоголосий закадровий
кодек: 5.1
бітрейт: 640 кб/с

Аудіо # 2:
мова: українська | HDRezka
переклад: багатоголосий закадровий
кодек: 5.1
бітрейт: 384 кб/с

Аудіо # 3:
мова: українська | (AnaivE, В одне рило, Анастасія Гайдаржи, Enelira)
переклад: багатоголосий закадровий
кодек: 5.1
бітрейт: 640 кб/с

Аудіо # 4:
мова: англійська
переклад: оригінал
кодек: E- 5.1 + Atmos
бітрейт: 768 кб/с

Субтитри # 1:
мова: українська (повні) | Т.С. Cтруґачка
тип: програмні (м'які)
формат: *.srt

Субтитри # 2:
мова: українська (тільки написи) | HDRezka
тип: програмні (м'які)
формат: *.srt

Субтитри # 3:
мова: українська (повні) | (1 серія AnaivE , далі MadGuy)
тип: програмні (м'які)
формат: *.srt

Субтитри # 4:
мова: англійська (SDH)
тип: програмні (м'які)
формат: *.srt
Info

Код:
General
Unique ID                                : 30902253060812275190695047564541941972 (0x173F8EB52AAF5F4664952C96809DD8D4)
Complete name                            : /Volumes/Download/Shows/The.Mandalorian.S02.2020..2160p.HDR.[Ukr.Eng]/The.Mandalorian.S02E01.2020..2160p.HDR.[Ukr.Eng].
Format                                   :
Format version                           : Version 4
File size                                : 8.87 GiB
Duration                                 : 51 min 48 s
Overall bit rate                         : 24.5 Mb/s
Movie name                               : The.Mandalorian.S02E01.2020..2160p.HDR.[Ukr.Eng]
Encoded date                             : UTC 2020-11-08 15:36:26
Writing application                      : v47.0.0 ('Black Flag') 64-bit
Writing library                          : libebml v1.3.10 + v1.5.2

Video
ID                                       : 1
Format                                   : HEVC
Format/Info                              : High Efficiency Video Coding
Format profile                           : Main [email protected]@Main
Codec ID                                 : V_MPEGH/ISO/HEVC
Duration                                 : 51 min 47 s
Bit rate                                 : 22.1 Mb/s
Width                                    : 3 840 pixels
Height                                   : 2 160 pixels
Display aspect ratio                     : 16:9
Frame rate mode                          : Constant
Frame rate                               : 23.976 (24000/1001) FPS
Color space                              : YUV
Chroma subsampling                       : 4:2:0
Bit depth                                : 10 bits
Bits/(Pixel*Frame)                       : 0.111
Stream size                              : 7.99 GiB (90%)
Writing library                          : x265 3.4:[Linux][GCC 7.5.0][64 bit] 10bit
Encoding settings                        : cpuid=1111039 / frame-threads=1 / wpp / no-pmode / no-pme / no-psnr / no-ssim / log-level=2 / input-csp=1 / input-res=3840x2160 / interlace=0 / total-frames=0 / level-idc=50 / high-tier=0 / uhd-bd=0 / ref=3 / no-allow-non-conformance / repeat-headers / annexb / no-aud / no-hrd / info / hash=0 / no-temporal-layers / no-open-gop / min-keyint=48 / keyint=48 / gop-lookahead=0 / bframes=2 / b-adapt=1 / b-pyramid / bframe-bias=0 / rc-lookahead=48 / lookahead-slices=8 / scenecut=0 / hist-scenecut=0 / radl=0 / splice / no-intra-refresh / ctu=32 / min-cu-size=8 / no-rect / no-amp / max-tu-size=16 / tu-inter-depth=2 / tu-intra-depth=2 / limit-tu=0 / rdoq-level=1 / dynamic-rd=0.00 / no-ssim-rd / signhide / no-tskip / nr-intra=0 / nr-inter=0 / no-constrained-intra / no-strong-intra-smoothing / max-merge=3 / limit-refs=1 / no-limit-modes / me=1 / subme=2 / merange=44 / temporal-mvp / no-frame-dup / no-hme / weightp / no-weightb / no-analyze-src-pics / deblock=0:0 / no-sao / no-sao-non-deblock / rd=4 / selective-sao=0 / early-skip / rskip / no-fast-intra / no-tskip-fast / no-cu-lossless / b-intra / no-splitrd-skip / rdpenalty=1 / psy-rd=1.60 / psy-rdoq=5.00 / no-rd-refine / no-lossless / cbqpoffs=0 / crqpoffs=0 / rc=abr / bitrate=23000 / qcomp=0.75 / qpstep=4 / stats-write=0 / stats-read=0 / vbv-maxrate=25000 / vbv-bufsize=25000 / vbv-init=0.9 / ipratio=1.40 / pbratio=1.30 / aq-mode=3 / aq-strength=1.00 / no-cutree / zone-count=0 / no-strict-cbr / qg-size=32 / no-rc-grain / qpmax=69 / qpmin=0 / no-const-vbv / sar=1 / overscan=0 / videoformat=5 / range=0 / colorprim=9 / transfer=16 / colormatrix=9 / chromaloc=0 / display-window=0 / cll=0,0 / min-luma=0 / max-luma=1023 / log2-max-poc-lsb=8 / vui-timing-info / vui-hrd-info / slices=1 / no-opt-qp-pps / no-opt-ref-list-length-pps / no-multi-pass-opt-rps / scenecut-bias=0.00 / hist-threshold=0.01 / no-opt-cu-delta-qp / no-aq-motion / no-hdr10 / hdr10-opt / no-dhdr10-opt / no-idr-recovery-sei / analysis-reuse-level=0 / analysis-save-reuse-level=0 / analysis-load-reuse-level=0 / scale-factor=0 / refine-intra=0 / refine-inter=0 / refine-mv=1 / refine-ctu-distortion=0 / no-limit-sao / ctu-info=0 / no-lowpass-dct / refine-analysis-type=0 / copy-pic=1 / max-ausize-factor=1.0 / no-dynamic-refine / no-single-sei / no-hevc-aq / no-svt / no-field / qp-adaptation-range=1.00 / no-scenecut-aware-qpconformance-window-offsets / right=0 / bottom=0
Language                                 : English
Default                                  : Yes
Forced                                   : No
Color range                              : Limited
Color primaries                          : BT.2020
Transfer characteristics                 : PQ
Matrix coefficients                      : BT.2020 non-constant

Audio #1
ID                                       : 2
Format                                   : AC-3
Format/Info                              : Audio Coding 3
Commercial name                          : Dolby Digital
Codec ID                                 : A_AC3
Duration                                 : 51 min 48 s
Bit rate mode                            : Constant
Bit rate                                 : 640 kb/s
Channel(s)                               : 6 channels
Channel layout                           : L R C LFE Ls Rs
Sampling rate                            : 48.0 kHz
Frame rate                               : 31.250 FPS (1536 SPF)
Compression mode                         : Lossy
Stream size                              : 237 MiB (3%)
Title                                    : Ukrainian (Strugachka)
Language                                 : Ukrainian
Service kind                             : Complete Main
Default                                  : Yes
Forced                                   : No

Audio #2
ID                                       : 3
Format                                   : AC-3
Format/Info                              : Audio Coding 3
Commercial name                          : Dolby Digital
Codec ID                                 : A_AC3
Duration                                 : 51 min 48 s
Bit rate mode                            : Constant
Bit rate                                 : 384 kb/s
Channel(s)                               : 6 channels
Channel layout                           : L R C LFE Ls Rs
Sampling rate                            : 48.0 kHz
Frame rate                               : 31.250 FPS (1536 SPF)
Compression mode                         : Lossy
Delay relative to video                  : 24 ms
Stream size                              : 142 MiB (2%)
Title                                    : Ukrainian (HDREZKA)
Language                                 : Ukrainian
Service kind                             : Complete Main
Default                                  : No
Forced                                   : No

Audio #3
ID                                       : 4
Format                                   : AC-3
Format/Info                              : Audio Coding 3
Commercial name                          : Dolby Digital
Codec ID                                 : A_AC3
Duration                                 : 51 min 48 s
Bit rate mode                            : Constant
Bit rate                                 : 640 kb/s
Channel(s)                               : 6 channels
Channel layout                           : L R C LFE Ls Rs
Sampling rate                            : 48.0 kHz
Frame rate                               : 31.250 FPS (1536 SPF)
Compression mode                         : Lossy
Stream size                              : 237 MiB (3%)
Title                                    : Ukrainian (В одне рило)  MVO 5.1
Language                                 : Ukrainian
Service kind                             : Complete Main
Default                                  : No
Forced                                   : No

Audio #4
ID                                       : 5
Format                                   : E-AC-3 JOC
Format/Info                              : Enhanced AC-3 with Joint Object Coding
Commercial name                          : Dolby Digital Plus with Dolby Atmos
Codec ID                                 : A_EAC3
Duration                                 : 51 min 48 s
Bit rate mode                            : Constant
Bit rate                                 : 768 kb/s
Channel(s)                               : 6 channels
Channel layout                           : L R C LFE Ls Rs
Sampling rate                            : 48.0 kHz
Frame rate                               : 31.250 FPS (1536 SPF)
Compression mode                         : Lossy
Stream size                              : 285 MiB (3%)
Language                                 : English
Service kind                             : Complete Main
Default                                  : No
Forced                                   : No
Complexity index                         : 16
Number of dynamic objects                : 15
Bed channel count                        : 1 channel
Bed channel configuration                : LFE

Text #1
ID                                       : 6
Format                                   : UTF-8
Codec ID                                 : S_TEXT/UTF8
Codec ID/Info                            : UTF-8 Plain Text
Duration                                 : 48 min 18 s
Bit rate                                 : 48 b/s
Count of elements                        : 342
Stream size                              : 17.1 KiB (0%)
Title                                    : Ukrainian (Strugachka)
Language                                 : Ukrainian
Default                                  : No
Forced                                   : No

Text #2
ID                                       : 7
Format                                   : UTF-8
Codec ID                                 : S_TEXT/UTF8
Codec ID/Info                            : UTF-8 Plain Text
Duration                                 : 8 min 38 s
Bit rate                                 : 2 b/s
Count of elements                        : 5
Stream size                              : 152 Bytes (0%)
Title                                    : Ukrainian (HDREZKA)
Language                                 : Ukrainian
Default                                  : No
Forced                                   : No

Text #3
ID                                       : 8
Format                                   : UTF-8
Codec ID                                 : S_TEXT/UTF8
Codec ID/Info                            : UTF-8 Plain Text
Duration                                 : 48 min 13 s
Bit rate                                 : 56 b/s
Count of elements                        : 342
Stream size                              : 19.9 KiB (0%)
Title                                    : Ukrainian (AnaivE)
Language                                 : Ukrainian
Default                                  : No
Forced                                   : No

Text #4
ID                                       : 9
Format                                   : UTF-8
Codec ID                                 : S_TEXT/UTF8
Codec ID/Info                            : UTF-8 Plain Text
Duration                                 : 48 min 25 s
Bit rate                                 : 43 b/s
Count of elements                        : 481
Stream size                              : 15.4 KiB (0%)
Title                                    : SDH
Language                                 : English
Default                                  : No
Forced                                   : No
Скріншоти






Джерело: &
Особиста оцінка: 10 - без зайвих вагань рекомендую всім!


Авторський реліз (завантажувати можна без реєстрації)
 Трекер:    Зареєстрований   

Завантажити / скачати серіал українською



відео для новачків



 Зареєстрований:   2020-11-29 20:56
 Розмір:   31.96 GB 
 Оцінка серіалу:   10/10 (Голосів: 7)
   
RoMeL 
Відео Гуртом - підтримка та поширення
Відео Гуртом - підтримка та поширення


З нами з: 09.07.08
Востаннє: 01.12.20
Повідомлень: 237

2020-11-08 19:59  
В релізі об'єднав всі три доступні озвучки.
Кожний може обрати, що йому більше до вподоби.

Вояка Schweik 
Свій


З нами з: 07.12.19
Востаннє: 01.12.20
Повідомлень: 145

2020-11-08 20:33  
RoMeL
Підпишіть будь ласка які там субтитри, повні чи лише написи

RoMeL 
Відео Гуртом - підтримка та поширення
Відео Гуртом - підтримка та поширення


З нами з: 09.07.08
Востаннє: 01.12.20
Повідомлень: 237

2020-11-08 20:39  
Вояка Schweik
Додав

RoMeL 
Відео Гуртом - підтримка та поширення
Відео Гуртом - підтримка та поширення


З нами з: 09.07.08
Востаннє: 01.12.20
Повідомлень: 237

2020-11-09 17:17  
ТОРЕНТ ОНОВЛЕНО! ДОДАНА 2 СЕРІЯ

cronosua 
Новенький


З нами з: 10.01.19
Востаннє: 29.11.20
Повідомлень: 2

2020-11-14 11:15  
нажаль фільм знятий ніби аматорами, з ніякими спецефектами і ніякими акторами, дісней ,дісней...
RoMeL 
Відео Гуртом - підтримка та поширення
Відео Гуртом - підтримка та поширення


З нами з: 09.07.08
Востаннє: 01.12.20
Повідомлень: 237

2020-11-14 12:40  
cronosua написано:
нажаль фільм знятий ніби аматорами, з ніякими спецефектами і ніякими акторами, дісней ,дісней...

як на мене, спецефекти досить непогані, а відмова від CGI на користь аніматроніки це свідомий вибір Джона Фавро. Було б непогано якщо йому б дали робити наступні епізоди Зоряних Війн Happy

revolt 
Новенький


З нами з: 13.06.09
Востаннє: 30.11.20
Повідомлень: 16

2020-11-14 17:47  
Чи буде перший сезон у 4k?
RoMeL 
Відео Гуртом - підтримка та поширення
Відео Гуртом - підтримка та поширення


З нами з: 09.07.08
Востаннє: 01.12.20
Повідомлень: 237

2020-11-14 17:49  
revolt
Буде

RoMeL 
Відео Гуртом - підтримка та поширення
Відео Гуртом - підтримка та поширення


З нами з: 09.07.08
Востаннє: 01.12.20
Повідомлень: 237

2020-11-14 20:54  
ТОРЕНТ ОНОВЛЕНО! ДОДАНА 3 СЕРІЯ


P.S. Поки з двома варіантами озвучки, коли з'явиться версія від strugachka, серія буде оновлена

ziben 
Новенький


З нами з: 18.08.15
Востаннє: 30.11.20
Повідомлень: 15

2020-11-16 19:20  
ойй за 4к просто респект!! по більше б контенту в такій якості
RoMeL 
Відео Гуртом - підтримка та поширення
Відео Гуртом - підтримка та поширення


З нами з: 09.07.08
Востаннє: 01.12.20
Повідомлень: 237

2020-11-16 22:42  
ziben написано:
ойй за 4к просто респект!! по більше б контенту в такій якості

по мірі своїх можливостей стараюсь роботи релізи серіалів в 4К+HDR

Хто скачав пишіть свої побажання, які ще серіали хочете бачити в такій якості Happy

Horilka 
Новенький


З нами з: 14.03.10
Востаннє: 28.11.20
Повідомлень: 8

2020-11-18 23:09  
Дякую за реліз в 4К+HDR, такі релізи дуже потрібні.
RoMeL 
Відео Гуртом - підтримка та поширення
Відео Гуртом - підтримка та поширення


З нами з: 09.07.08
Востаннє: 01.12.20
Повідомлень: 237

2020-11-19 22:54  
ТОРЕНТ ОНОВЛЕНО! В 3 СЕРІЇ ДОДАНА ОЗВУЧКА ВІД СТРУГАЧКИ

RoMeL 
Відео Гуртом - підтримка та поширення
Відео Гуртом - підтримка та поширення


З нами з: 09.07.08
Востаннє: 01.12.20
Повідомлень: 237

2020-11-20 22:47  
ТОРЕНТ ОНОВЛЕНО! ДОДАНА 4 СЕРІЯ (Озвучення - AnaivE)

Jigorua 
Новенький


З нами з: 06.05.17
Востаннє: 01.12.20
Повідомлень: 3

2020-11-21 19:23  
[b]RoMeL[/b]
Привіт, 4 серія, поки що, без озвучки від струґачки?

[color=orange][size=9]Додано через 30 секунд:[/size][/color]

Привіт, 4 серія, поки що, без озвучки від струґачки?

mahno2 
Новенький


З нами з: 23.05.11
Востаннє: 28.11.20
Повідомлень: 2

2020-11-21 19:46  
Немає стругачки(
RoMeL 
Відео Гуртом - підтримка та поширення
Відео Гуртом - підтримка та поширення


З нами з: 09.07.08
Востаннє: 01.12.20
Повідомлень: 237

2020-11-22 13:53  
коли зявиться озвучка 4 серії від Стругачки, серія буде оновлена
RoMeL 
Відео Гуртом - підтримка та поширення
Відео Гуртом - підтримка та поширення


З нами з: 09.07.08
Востаннє: 01.12.20
Повідомлень: 237

2020-11-24 00:29  
ТОРЕНТ ОНОВЛЕНО! В 4 СЕРІЇ ДОДАНА ОЗВУЧКА ВІД СТРУГАЧКИ І HDREZKA

RoMeL 
Відео Гуртом - підтримка та поширення
Відео Гуртом - підтримка та поширення


З нами з: 09.07.08
Востаннє: 01.12.20
Повідомлень: 237

2020-11-28 15:25  
Чекаю кращого ріпу 5 серії, той що є в наявності з бітрейтом в 2 рази менший ніж попередні...
Jigorua 
Новенький


З нами з: 06.05.17
Востаннє: 01.12.20
Повідомлень: 3

2020-11-28 19:23  
А ці серії раз на 5 днів виходять?
RoMeL 
Відео Гуртом - підтримка та поширення
Відео Гуртом - підтримка та поширення


З нами з: 09.07.08
Востаннє: 01.12.20
Повідомлень: 237

2020-11-28 22:48  
Jigorua
раз в тиждень, в пятницю в США

ved'mak 
Новенький


З нами з: 09.11.14
Востаннє: 30.11.20
Повідомлень: 4

2020-11-29 14:47  
В сусідній темі також жаліються на низький бітрейт їхнього ріпа. Скоріше за все, увесь той туман просто не потребує більшого бітрейта і кращих ріпів чекати не варто.
RoMeL 
Відео Гуртом - підтримка та поширення
Відео Гуртом - підтримка та поширення


З нами з: 09.07.08
Востаннє: 01.12.20
Повідомлень: 237

2020-11-29 21:00  
ТОРЕНТ ОНОВЛЕНО! ДОДАНО 5 СЕРІЮ

P.S. В цій серії відеоряд з меншим бітрейтом, ніж звичайно. Якщо появиться кращий - серія буде оновлена

Hailrake 
Новенький


З нами з: 24.11.20
Востаннє: 30.11.20
Повідомлень: 1

2020-11-30 19:13  
Дякую за роздачу!
laser 
VIP


З нами з: 22.03.08
Востаннє: 30.11.20
Повідомлень: 456

2020-11-30 23:53  
пардон, що не по темі. в мене на звичайному ПК і моніторі 10 річної давнсоті
Цитата:
бітова глибина: 10 біт
кольоровий простір: BT.2020 (HDR)
буде виглядати так само тьмяно як і на представлених скріншотах? питаю просто щоб не качати 6 гіг аби спробувати.
Ваш часовий пояс: GMT + 2 Години

Нова тема   Відповісти