Мій учитель - восьминіг / My Octopus Teacher (2020) 1080p Eng / Ukr sub

Нові коментарі

Нова тема   Відповісти
Автор Повідомлення
killer2015 
VIP


З нами з: 30.01.15
Востаннє: 22.04.21
Повідомлень: 495

2020-11-08 13:03  
Мій учитель - восьминіг / My Octopus Teacher (2020) 1080p Eng / Ukr sub

Мій учитель - восьминіг / My Octopus Teacher (2020) 1080p Eng / Ukr sub


Жанр: документальний
Країна: ПАР



Телеканал / кіностудія: Off the fence, The Sea Change Project, Netflix
Режисер: Пиппа Эрлих, Джеймс Рид
Актори: Крейг Фостер

Сюжет:
Режисер фільму розповідає про свою незвичайну дружбу з південноафриканським восьминогом, показуючи таємниці життя цієї тварини.


Тривалість: 01:25:35
Якість: 1080p
Відео:
кодек:
розмір кадру: 1920x1080
бітрейт: 7 150 кб/с

Аудіо:
мова: англійська
переклад: оригінал
кодек: E- 5.1
бітрейт: 640 кб/с

Субтитри:
мова: українська
(власний переклад з російської)
тип: програмні (м'які)
формат: *.srt
МІ
General
Unique ID : 121294435190725359201473836388791986161 (0x5B40755F15D1B8045CBC167CE87DA7F1)
Complete name : G:\Фільми\My.Octopus.Teacher.2020.1080p.NF_uk\My.Octopus.Teacher.2020.1080p.NF (1).
Format :
Format version : Version 4
File size : 4.61 GiB
Duration : 1 h 25 min
Overall bit rate mode : Variable
Overall bit rate : 7 705 kb/s
Encoded date : UTC 2020-11-08 08:43:07
Writing application : v47.0.0 ('Black Flag') 64-bit
Writing library : libebml v1.3.10 + v1.5.2

Video
ID : 1
Format : AVC
Format/Info : Advanced Video Codec
Format profile : [email protected]
Format settings : CABAC / 3 Ref Frames
Format settings, CABAC : Yes
Format settings, Reference frames : 3 frames
Codec ID : V_MPEG4/ISO/AVC
Duration : 1 h 25 min
Bit rate mode : Variable
Bit rate : 7 150 kb/s
Maximum bit rate : 10.7 Mb/s
Width : 1 920 pixels
Height : 1 080 pixels
Display aspect ratio : 16:9
Frame rate mode : Constant
Frame rate : 25.000 FPS
Color space : YUV
Chroma subsampling : 4:2:0
Bit depth : 8 bits
Scan type : Progressive
Bits/(Pixel*Frame) : 0.138
Stream size : 4.22 GiB (92%)
Writing library : core 148 r2721 6d200cf
Encoding settings : cabac=1 / ref=3 / deblock=1:0:0 / analyse=0x1:0x111 / me=umh / subme=10 / psy=1 / psy_rd=1.00:0.00 / mixed_ref=1 / me_range=24 / chroma_me=1 / trellis=2 / 8x8dct=0 / cqm=0 / deadzone=21,11 / fast_pskip=1 / chroma_qp_offset=-2 / threads=6 / lookahead_threads=1 / sliced_threads=0 / nr=0 / decimate=1 / interlaced=0 / bluray_compat=0 / stitchable=1 / constrained_intra=0 / bframes=2 / b_pyramid=0 / b_adapt=2 / b_bias=0 / direct=3 / weightb=1 / open_gop=0 / weightp=2 / keyint=250 / keyint_min=25 / scenecut=0 / intra_refresh=0 / rc_lookahead=50 / rc=2pass / mbtree=1 / bitrate=7150 / ratetol=1.0 / qcomp=0.50 / qpmin=6 / qpmax=51 / qpstep=4 / cplxblur=20.0 / qblur=0.5 / vbv_maxrate=10725 / vbv_bufsize=14300 / nal_hrd=vbr / filler=0 / ip_ratio=1.40 / aq=1:1.00
Language : English
Default : Yes
Forced : No

Audio
ID : 2
Format : E-AC-3
Format/Info : Enhanced AC-3
Commercial name : Dolby Digital Plus
Codec ID : A_EAC3
Duration : 1 h 25 min
Bit rate mode : Constant
Bit rate : 640 kb/s
Channel(s) : 6 channels
Channel layout : L R C LFE Ls Rs
Sampling rate : 48.0 kHz
Frame rate : 31.250 FPS (1536 SPF)
Compression mode : Lossy
Stream size : 392 MiB (8%)
Language : English
Service kind : Complete Main
Default : Yes
Forced : No
Скріншоти





Джерело:
Особиста оцінка: 10 - без зайвих вагань рекомендую всім!


 Трекер:    Зареєстрований   

Завантажити / скачати торрент



відео для новачків



 Зареєстрований:   2020-11-08 13:03
 Розмір:   4.61 GB 
 Оцінка:   7.8/10 (Голосів: 4)
   
killer2015 
VIP


З нами з: 30.01.15
Востаннє: 22.04.21
Повідомлень: 495

2020-11-08 13:06  


Неймовірна історія)

Форкуш 
VIP


З нами з: 03.02.10
Востаннє: 22.04.21
Повідомлень: 2974

2020-11-08 20:33  
Ого. Цікавезно...
Форкуш 
VIP


З нами з: 03.02.10
Востаннє: 22.04.21
Повідомлень: 2974

2020-11-22 23:23  
killer2015
Дякую безмежно за такий чудовий фільм) 9/10

Ваш часовий пояс: GMT + 2 Години

Нова тема   Відповісти