День Господа / Menendez Parte 1: El día del Señor (2020) 1080p Esp | sub Ukr

Нові коментарі

Нова тема   Відповісти
Останній раз роздавалося killer2015 (2020-11-15)
Автор Повідомлення
killer2015 
Поважний учасник


З нами з: 30.01.15
Востаннє: 04.12.20
Повідомлень: 201

2020-11-07 10:33  
День Господа / Menendez Parte 1: El día del Señor (2020) 1080p Esp | sub Ukr

День Господа / Menendez Parte 1: El día del Señor (2020) 1080p Esp | sub Ukr


Жанр: містика, триллер, драма
Країна: Мексика, Іспанія



Кінокомпанія: Invico Capital, Magno Entertainment, Minds Eye Entertainment
Режисер: Сантьяго Альварадо
Актори: Долорес Ередия, Хімена Ромо, Хулі Фабрегас, Гектор Ілланес, Оскар Гордилло

Сюжет:
Колись він був священником, служителем католицької церкви. Але один випадок змусив його залишити церкву назавжди. Але зараз йому потрібно згадати все, щоб допомогти дитині свого товариша.


Тривалість: 01:33:13
Якість: 1080
Відео:
кодек:
розмір кадру: 1920x1080
бітрейт: 5 646 кб/с

Аудіо:
мова: Іспанська
переклад: оригінал
кодек: E- 5.1
бітрейт: 768 кб/с

Субтитри:
мова: українська
(власний переклад з російської)
тип: програмні (м'які)
формат: *.srt
МІ
General
Unique ID : 188694937791237205468087092866200124945 (0x8DF552B6FC630AE567E3F1D086443E11)
Complete name : G:\Фільми\The.Day.of.the.Lord.2020.1080p_uk\The.Day.of.the.Lord.2020.1080p.
Format :
Format version : Version 4
File size : 4.18 GiB
Duration : 1 h 33 min
Overall bit rate mode : Variable
Overall bit rate : 6 416 kb/s
Encoded date : UTC 2020-10-31 13:07:42
Writing application : v47.0.0 ('Black Flag') 64-bit
Writing library : libebml v1.3.10 + v1.5.2

Video
ID : 1
Format : AVC
Format/Info : Advanced Video Codec
Format profile : [email protected]
Format settings : CABAC / 4 Ref Frames
Format settings, CABAC : Yes
Format settings, Reference frames : 4 frames
Codec ID : V_MPEG4/ISO/AVC
Duration : 1 h 33 min
Bit rate mode : Variable
Bit rate : 5 646 kb/s
Maximum bit rate : 20.0 Mb/s
Width : 1 920 pixels
Height : 1 080 pixels
Display aspect ratio : 16:9
Frame rate mode : Constant
Frame rate : 24.000 FPS
Color space : YUV
Chroma subsampling : 4:2:0
Bit depth : 8 bits
Scan type : Progressive
Bits/(Pixel*Frame) : 0.113
Stream size : 3.68 GiB (88%)
Writing library : core 148 r2722 1b0121b
Encoding settings : cabac=1 / ref=4 / deblock=1:0:0 / analyse=0x3:0x111 / me=umh / subme=10 / psy=1 / psy_rd=1.00:0.00 / mixed_ref=1 / me_range=120 / chroma_me=1 / trellis=2 / 8x8dct=1 / cqm=0 / deadzone=21,11 / fast_pskip=1 / chroma_qp_offset=-2 / threads=8 / lookahead_threads=2 / sliced_threads=0 / nr=0 / decimate=1 / interlaced=0 / bluray_compat=0 / stitchable=1 / constrained_intra=0 / bframes=16 / b_pyramid=2 / b_adapt=2 / b_bias=0 / direct=3 / weightb=1 / open_gop=0 / weightp=2 / keyint=240 / keyint_min=121 / scenecut=0 / intra_refresh=0 / rc_lookahead=240 / rc=crf / mbtree=1 / crf=16.0 / qcomp=0.50 / qpmin=6 / qpmax=51 / qpstep=4 / vbv_maxrate=20000 / vbv_bufsize=25000 / crf_max=0.0 / nal_hrd=vbr / filler=0 / ip_ratio=1.40 / aq=1:0.80
Language : Spanish
Default : Yes
Forced : No

Audio
ID : 2
Format : E-AC-3 JOC
Format/Info : Enhanced AC-3 with Joint Object Coding
Commercial name : Dolby Digital Plus with Dolby Atmos
Codec ID : A_EAC3
Duration : 1 h 33 min
Bit rate mode : Constant
Bit rate : 768 kb/s
Channel(s) : 6 channels
Channel layout : L R C LFE Ls Rs
Sampling rate : 48.0 kHz
Frame rate : 31.250 FPS (1536 SPF)
Compression mode : Lossy
Stream size : 512 MiB (12%)
Language : Spanish
Service kind : Complete Main
Default : Yes
Forced : No
Complexity index : 16
Number of dynamic objects : 15
Bed channel count : 1 channel
Bed channel configuration : LFE
Скріншоти






Джерело:
Особиста оцінка: 8 - мені сподобалося


 Трекер:    Зареєстрований   

Завантажити / скачати фільм українською



відео для новачків



 Зареєстрований:   2020-11-07 10:33
 Розмір:   4.18 GB 
 Оцінка фільму:   10/10 (Голосів: 2)
   
killer2015 
Поважний учасник


З нами з: 30.01.15
Востаннє: 04.12.20
Повідомлень: 201

2020-11-07 10:34  

staf777 
Відео Гуртом - підтримка та поширення
Відео Гуртом - підтримка та поширення


З нами з: 16.11.16
Востаннє: 04.12.20
Повідомлень: 4602

2020-11-07 10:56  
Дякую - а озвучка наша буде хто знає бо іспанці буває роблять дуже неплохі жахастикі
killer2015 
Поважний учасник


З нами з: 30.01.15
Востаннє: 04.12.20
Повідомлень: 201

2020-11-07 11:52  
Ніде в афішах не знайшов, тому думаю що якщо колись і буде то тільки під замовлення.
Ваш часовий пояс: GMT + 2 Години

Нова тема   Відповісти