Рятуйтесь! / Save Yourselves! (2020) 1080p Eng | sub Ukr

Нові коментарі

Нова тема   Відповісти
Автор Повідомлення
Anonymous 







2020-11-07 02:31  
Рятуйтесь! / Save Yourselves! (2020) 1080p Eng | sub Ukr

Рятуйтесь! / Save Yourselves! (2020) 1080p Eng | sub Ukr


Жанр: комедія, фантастика
Країна: США



Кінокомпанія: Keshet Studios, Last Rodeo Studios, Washington Square Films
Режисер: Алекс Хастон Фішер, Елеонора Вілсон
Актори: Суніта Мані, Джон Рейнольдс, Бен Сінклер, Джо Фаєрстоун, Гері Річардсон, Джон Ерлі та ін.

Сюжет:
Джек і Су - це модна пара з Брукліну, яка, як і багато їхніх друзів, опиняється залежною від технологій і не може відкласти свої телефони. Побоюючись що це може вплинути на їхній зв’язок, вони користуються шансом відправитися в ізольований будиночок в лісі, обіцяючи від’єднатися від зовнішнього світу на тиждень. Захищені від текстових та push-сповіщень, вони блаженно не знають, що планета зазнає нападу. Коли дивні події розгортаються, подружжя повинне знайти шлях до цивілізації - або до того, що від неї залишилося.


Тривалість: 01:33:56
Якість:
Відео:
кодек:
розмір кадру: 1920 х 1040
бітрейт: 13 Мб/с

Аудіо # 1:
мова: англійська
переклад: оригінал
кодек: 5.1
бітрейт: 640 кб/с

Аудіо # 2:
мова: англійська
переклад: оригінал
кодек: -HD 5.1
бітрейт: 3279 кб/с

Субтитри:
мова: українська | переклад Всеволода Іващенка
тип: програмні (м'які)
формат: *.srt
Info
Код:
General
Unique ID                                : 196496927718082568486446120109379918443 (0x93D3EE845D878AA1373A55C3F3979A6B)
Complete name                            : Save Yourselves! (2020) 1080p [Eng_sub_Ukr] [Hurtom].
Format                                   :
Format version                           : Version 4
File size                                : 11.1 GiB
Duration                                 : 1 h 33 min
Overall bit rate mode                    : Variable
Overall bit rate                         : 16.8 Mb/s
Movie name                               : Save Yourselves! (2020)
Encoded date                             : UTC 2020-11-06 23:41:39
Writing application                      : v50.0.0 ('Awakenings') 64-bit
Writing library                          : libebml v1.4.0 + v1.6.2
Cover                                    : Yes
Attachments                              : cover.jpg

Video
ID                                       : 1
Format                                   : AVC
Format/Info                              : Advanced Video Codec
Format profile                           : [email protected]
Format settings                          : CABAC / 4 Ref Frames
Format settings, CABAC                   : Yes
Format settings, Reference frames        : 4 frames
Codec ID                                 : V_MPEG4/ISO/AVC
Duration                                 : 1 h 33 min
Bit rate                                 : 13.0 Mb/s
Width                                    : 1 920 pixels
Height                                   : 1 040 pixels
Display aspect ratio                     : 1.85:1
Frame rate mode                          : Constant
Frame rate                               : 23.976 (24000/1001) FPS
Color space                              : YUV
Chroma subsampling                       : 4:2:0
Bit depth                                : 8 bits
Scan type                                : Progressive
Bits/(Pixel*Frame)                       : 0.272
Stream size                              : 8.48 GiB (77%)
Writing library                          : core 142 r2479 dd79a61
Encoding settings                        : cabac=1 / ref=1 / deblock=1:0:0 / analyse=0x3:0x3 / me=dia / subme=1 / psy=1 / psy_rd=1.00:0.00 / mixed_ref=0 / me_range=16 / chroma_me=1 / trellis=0 / 8x8dct=1 / cqm=0 / deadzone=21,11 / fast_pskip=1 / chroma_qp_offset=0 / threads=24 / lookahead_threads=4 / sliced_threads=0 / nr=0 / decimate=1 / interlaced=0 / bluray_compat=0 / constrained_intra=0 / bframes=3 / b_pyramid=2 / b_adapt=1 / b_bias=0 / direct=1 / weightb=1 / open_gop=0 / weightp=1 / keyint=240 / keyint_min=24 / scenecut=40 / intra_refresh=0 / rc_lookahead=0 / rc=abr / mbtree=0 / bitrate=13000 / ratetol=1.0 / qcomp=0.60 / qpmin=0 / qpmax=69 / qpstep=4 / vbv_maxrate=62500 / vbv_bufsize=78125 / nal_hrd=none / filler=0 / ip_ratio=1.40 / pb_ratio=1.30 / aq=1:1.00
Default                                  : Yes
Forced                                   : No
Color range                              : Limited
Color primaries                          : BT.709
Transfer characteristics                 : BT.709
Matrix coefficients                      : BT.709

Audio #1
ID                                       : 2
Format                                   : AC-3
Format/Info                              : Audio Coding 3
Commercial name                          : Dolby Digital
Codec ID                                 : A_AC3
Duration                                 : 1 h 33 min
Bit rate mode                            : Constant
Bit rate                                 : 640 kb/s
Channel(s)                               : 6 channels
Channel layout                           : L R C LFE Ls Rs
Sampling rate                            : 48.0 kHz
Frame rate                               : 31.250 FPS (1536 SPF)
Compression mode                         : Lossy
Delay relative to video                  : -5 ms
Stream size                              : 430 MiB (4%)
Title                                    : Surround
Language                                 : English
Service kind                             : Complete Main
Default                                  : Yes
Forced                                   : No

Audio #2
ID                                       : 3
Format                                   : XLL
Format/Info                              : Digital Theater Systems
Commercial name                          : -HD Master Audio
Codec ID                                 : A_DTS
Duration                                 : 1 h 33 min
Bit rate mode                            : Variable
Bit rate                                 : 3 279 kb/s
Channel(s)                               : 6 channels
Channel layout                           : C L R Ls Rs LFE
Sampling rate                            : 48.0 kHz
Frame rate                               : 93.750 FPS (512 SPF)
Bit depth                                : 24 bits
Compression mode                         : Lossless
Stream size                              : 2.15 GiB (19%)
Title                                    : Surround
Language                                 : English
Default                                  : No
Forced                                   : No

Text
ID                                       : 4
Format                                   : UTF-8
Codec ID                                 : S_TEXT/UTF8
Codec ID/Info                            : UTF-8 Plain Text
Duration                                 : 1 h 32 min
Bit rate                                 : 105 b/s
Count of elements                        : 1326
Stream size                              : 71.5 KiB (0%)
Language                                 : Ukrainian
Default                                  : Yes
Forced                                   : Yes

Menu
00:00:00.000                             : :Chapter 1
00:05:14.188                             : :Chapter 2
00:10:38.221                             : :Chapter 3
00:14:28.826                             : :Chapter 4
00:20:34.691                             : :Chapter 5
00:23:35.998                             : :Chapter 6
00:28:41.720                             : :Chapter 7
00:31:35.101                             : :Chapter 8
00:37:46.639                             : :Chapter 9
00:42:27.920                             : :Chapter 10
00:47:54.413                             : :Chapter 11
00:52:49.916                             : :Chapter 12
00:57:17.767                             : :Chapter 13
00:59:33.862                             : :Chapter 14
01:04:16.894                             : :Chapter 15
01:10:22.593                             : :Chapter 16
01:15:38.909                             : :Chapter 17
01:22:56.012                             : :Chapter 18
01:25:56.818                             : :Chapter 19
01:30:59.829                             : :Chapter 20

Скріншоти


Джерело:


 Трекер:    Зареєстрований   

Завантажити / скачати фільм українською



відео для новачків



 Зареєстрований:   2020-11-07 02:31
 Розмір:   11.05 GB 
 Оцінка фільму:   10/10 (Голосів: 4)
   
camerettaUA 
Поважний учасник


З нами з: 26.03.20
Востаннє: 04.12.20
Повідомлень: 210

2020-11-07 04:57  
Ось чому випускати з рук смартфон - зло Wide grin
Ваш часовий пояс: GMT + 2 Години

Нова тема   Відповісти